<?xml version="1.0" standalone="no"?>
<!DOCTYPE svg PUBLIC "-//W3C//DTD SVG 1.1//EN" "http://www.w3.org/Graphics/SVG/1.1/DTD/svg11.dtd" >
<svg xmlns="http://www.w3.org/2000/svg">
<metadata>Generated by IcoMoon</metadata>
<defs>
<font id="icomoon" horiz-adv-x="1024">
<font-face units-per-em="1024" ascent="960" descent="-64" />
<missing-glyph horiz-adv-x="1024" />
<glyph unicode="&#x20;" horiz-adv-x="512" d="" />
<glyph unicode="&#xe900;" glyph-name="activity" d="M640 21.333c-18.389 0-34.688 11.733-40.448 29.184l-215.552 646.571-87.509-262.571c-5.803-17.451-22.101-29.184-40.491-29.184h-170.667c-23.552 0-42.667 19.072-42.667 42.667 0 23.552 19.115 42.667 42.667 42.667h139.904l118.272 354.816c5.845 17.451 22.101 29.184 40.491 29.184s34.688-11.733 40.491-29.184l215.509-646.571 87.552 262.571c5.803 17.451 22.059 29.184 40.448 29.184h170.667c23.595 0 42.667-19.115 42.667-42.667 0-23.595-19.072-42.667-42.667-42.667h-139.904l-118.272-354.816c-5.803-17.451-22.101-29.184-40.491-29.184z" />
<glyph unicode="&#xe901;" glyph-name="airplay" d="M853.333 192h-42.667c-23.595 0-42.667 19.072-42.667 42.667s19.072 42.667 42.667 42.667h42.667c23.552 0 42.667 19.115 42.667 42.667v426.667c0 23.509-19.115 42.667-42.667 42.667h-682.667c-23.509 0-42.667-19.157-42.667-42.667v-426.667c0-23.552 19.157-42.667 42.667-42.667h42.667c23.552 0 42.667-19.072 42.667-42.667s-19.115-42.667-42.667-42.667h-42.667c-70.571 0-128 57.429-128 128v426.667c0 70.571 57.429 128 128 128h682.667c70.571 0 128-57.429 128-128v-426.667c0-70.571-57.429-128-128-128zM726.187 21.333c-0.171 0-0.512 0-0.853 0h-426.667c-16.555 0-31.616 9.6-38.656 24.576s-4.736 32.683 5.888 45.397l213.333 256c16.213 19.413 49.323 19.413 65.579 0l208.896-250.709c9.301-7.851 15.147-19.541 15.147-32.64 0-23.552-19.115-42.624-42.667-42.624zM389.76 106.667h244.48l-122.24 146.645-122.24-146.645z" />
<glyph unicode="&#xe902;" glyph-name="alert-circle" d="M512-21.333c-258.773 0-469.333 210.56-469.333 469.333s210.56 469.333 469.333 469.333 469.333-210.56 469.333-469.333-210.56-469.333-469.333-469.333zM512 832c-211.712 0-384-172.288-384-384 0-211.755 172.288-384 384-384 211.755 0 384 172.245 384 384 0 211.712-172.245 384-384 384zM512 405.333c-23.552 0-42.667 19.072-42.667 42.667v170.667c0 23.552 19.115 42.667 42.667 42.667 23.595 0 42.667-19.115 42.667-42.667v-170.667c0-23.595-19.072-42.667-42.667-42.667zM512 234.667c-11.093 0-22.187 4.693-30.293 12.373-7.68 8.107-12.373 19.2-12.373 30.293s4.693 22.229 12.373 30.293c16.213 15.787 44.373 15.787 60.587 0 7.68-8.064 12.373-19.2 12.373-30.293s-4.693-22.187-12.373-30.293c-8.107-7.68-19.2-12.373-30.293-12.373z" />
<glyph unicode="&#xe905;" glyph-name="alarm" d="M802.543 422.4v153.498c0.734 117.026-77.961 194.645-145.579 225.553-19.371 8.858-39.339 15.684-59.631 20.753v9.796c0 47.053-38.281 85.333-85.333 85.333s-85.333-38.281-85.333-85.333v-11.281c-18.278-4.932-36.25-11.366-53.692-19.422-74.718-34.441-150.426-117.453-151.108-225.297v-153.6c0-109.022-38.502-202.564-114.432-278.033-4.523-4.506-6.161-11.145-4.25-17.237s7.083-10.598 13.38-11.691l161.98-27.972c30.174-5.205 57.958-9.472 84.395-12.988 29.781-58.368 88.269-95.829 152.166-95.829 63.915 0 122.419 37.478 152.183 95.881 26.334 3.499 53.982 7.748 83.985 12.937l161.963 27.972c6.298 1.075 11.452 5.598 13.38 11.691 1.929 6.076 0.29 12.732-4.25 17.237-79.497 79.036-119.825 172.578-119.825 278.033zM460.8 832c0 28.228 22.972 51.2 51.2 51.2s51.2-22.972 51.2-51.2v-3.106c-34.014 4.881-68.523 4.676-102.4-0.802v3.908zM515.123 12.8c-43.213 0-83.593 21.47-109.517 56.576 38.144-3.925 73.745-5.905 109.329-5.905 35.721 0 71.441 1.98 109.739 5.956-25.941-35.14-66.338-56.627-109.551-56.627zM745.489 121.122c-32.751-5.649-62.771-10.24-91.136-13.858-0.034 0-0.068 0-0.119 0-12.51-1.587-24.661-2.97-36.557-4.164-0.102 0-0.188-0.017-0.29-0.017-10.906-1.092-21.555-1.98-32.102-2.731-1.98-0.137-3.959-0.273-5.922-0.393-9.131-0.597-18.159-1.075-27.136-1.417-1.826-0.068-3.669-0.171-5.495-0.222-21.231-0.717-42.172-0.717-63.386-0.017-1.894 0.068-3.806 0.171-5.7 0.239-8.823 0.358-17.715 0.802-26.709 1.399-2.133 0.137-4.267 0.273-6.417 0.427-10.223 0.734-20.565 1.587-31.13 2.645-0.393 0.034-0.768 0.068-1.161 0.102-11.81 1.178-23.859 2.56-36.25 4.13-0.051 0-0.102 0-0.154 0-28.467 3.601-58.607 8.226-91.494 13.892l-130.731 22.562c67.977 77.722 102.4 171.315 102.4 278.699v153.498c0.58 92.757 66.355 164.471 131.26 194.406 19.302 8.892 39.322 15.531 59.682 20.19 0.171 0.034 0.358 0.017 0.529 0.051 42.069 9.455 86.818 9.882 129.365 1.161 0.222-0.051 0.444 0.051 0.666 0.017 22.255-4.642 44.169-11.674 65.28-21.316 62.959-28.791 126.225-100.028 125.628-194.423v-153.6c0-102.963 37.12-198.707 107.742-278.716l-130.662-22.545zM621.517 723.831c-66.133 30.225-147.115 30.259-212.804-0.034-37.461-17.271-101.001-67.806-101.513-147.695-0.051-9.421 7.526-17.101 16.964-17.169 0.034 0 0.068 0 0.102 0 9.37 0 17.015 7.561 17.067 16.964 0.393 62.754 51.524 102.997 81.664 116.907 56.832 26.231 127.078 26.163 184.303 0 8.585-3.925 18.705-0.154 22.63 8.414 3.925 8.585 0.137 18.705-8.414 22.613zM81.954 570.999c-6.673 6.673-17.459 6.673-24.132 0-37.291-37.291-57.822-86.921-57.822-139.776s20.531-102.502 57.822-139.776c3.328-3.328 7.697-5.001 12.066-5.001s8.738 1.673 12.066 5.001c6.673 6.673 6.673 17.459 0 24.132-30.839 30.839-47.821 71.902-47.821 115.644s16.981 84.821 47.821 115.644c6.656 6.673 6.656 17.459 0 24.132zM141.739 325.291c4.369 0 8.738 1.673 12.066 5.001 6.673 6.673 6.673 17.459 0 24.132-43.657 43.657-43.657 114.671 0 158.31 6.673 6.673 6.673 17.459 0 24.132s-17.459 6.673-24.132 0c-56.951-56.951-56.951-149.641 0-206.575 3.328-3.345 7.697-5.001 12.066-5.001zM966.178 570.999c-6.673 6.673-17.459 6.673-24.132 0s-6.673-17.459 0-24.132c30.839-30.839 47.821-71.902 47.821-115.644s-16.981-84.804-47.821-115.644c-6.673-6.673-6.673-17.459 0-24.132 3.328-3.328 7.697-5.001 12.066-5.001s8.738 1.673 12.066 5.001c37.291 37.274 57.822 86.921 57.822 139.776s-20.531 102.485-57.822 139.776zM870.195 536.866c-6.673-6.673-6.673-17.459 0-24.132 43.657-43.657 43.657-114.671 0-158.31-6.673-6.673-6.673-17.459 0-24.132 3.328-3.328 7.697-5.001 12.066-5.001s8.738 1.673 12.066 5.001c56.951 56.951 56.951 149.641 0 206.575-6.673 6.673-17.476 6.673-24.132 0z" />
<glyph unicode="&#xe90e;" glyph-name="angle-arrow-down" d="M1013.768 685.029l-51.299 51.295c-6.836 6.85-14.71 10.264-23.612 10.264-8.88 0-16.751-3.414-23.587-10.264l-403.265-403.244-403.247 403.233c-6.839 6.85-14.71 10.264-23.601 10.264-8.895 0-16.765-3.414-23.601-10.264l-51.292-51.299c-6.85-6.836-10.264-14.706-10.264-23.601 0-8.888 3.425-16.758 10.264-23.594l478.14-478.151c6.836-6.839 14.71-10.257 23.601-10.257s16.751 3.418 23.583 10.257l478.18 478.151c6.836 6.839 10.232 14.71 10.232 23.594 0 8.895-3.396 16.765-10.232 23.615z" />
<glyph unicode="&#xe91f;" glyph-name="back-arrow" d="M398.222 647.111v227.556l-398.222-398.222 398.222-398.222v233.244c284.444 0 483.556-91.022 625.778-290.133-56.889 284.444-227.556 568.889-625.778 625.778z" />
<glyph unicode="&#xe926;" glyph-name="bell-outline" d="M512 225.683c-197.241 0-406.841-50.78-406.841-144.857 0-94.047 209.599-144.827 406.841-144.827 197.226 0 406.826 50.78 406.826 144.827 0 94.077-209.584 144.857-406.826 144.857zM512 185.956c21.416 0 41.752-0.705 61.563-1.695-0.375-1.515-0.915-2.924-0.915-4.544 0-40.927-33.279-74.221-74.101-74.221s-74.101 33.323-74.101 74.221c0 1.035-0.405 1.935-0.585 2.909 27.715 2.1 57.019 3.329 88.138 3.329zM512-24.273c-227.491 0-367.158 61.218-367.158 105.099 0 35.183 89.952 81.464 242.773 98.441 0.255-61.068 49.895-110.723 110.933-110.723 61.188 0 110.963 49.865 110.963 111.143 0 0.78-0.33 1.425-0.42 2.16 169.287-14.247 270.052-63.828 270.052-101.020 0.030-43.881-139.668-105.099-367.143-105.099zM987.062 140.935l-120.921 150.586c-36.968 45.966-52.475 105.744-42.622 163.933l3.554 21.056c14.172 83.714-9.058 168.912-63.768 233.759-41.497 49.205-97.526 82.439-159.164 95.651v62.508c0 50.51-41.017 91.572-92.877 91.572-50.405 0-91.437-41.062-91.437-91.572v-62.508c-61.638-13.212-117.682-46.446-159.149-95.651-54.679-64.847-77.94-150.046-63.783-233.759l3.569-21.056c9.853-58.189-5.654-117.952-42.622-163.933l-120.921-150.586c-6.374-7.933-5.114-19.586 2.819-25.945s19.511-5.159 25.915 2.819l120.936 150.586c43.521 54.229 61.863 124.656 50.255 193.297l-3.569 21.041c-12.328 72.931 7.888 147.241 55.579 203.765 47.706 56.539 117.367 88.948 191.288 88.948h63.768c73.906 0 143.552-32.409 191.273-88.948 47.691-56.524 67.892-130.834 55.564-203.765l-3.554-21.041c-11.623-68.612 6.689-139.053 50.255-193.297l120.921-150.586c3.644-4.544 9.013-6.884 14.367-6.884 4.064 0 8.128 1.35 11.563 4.064 7.873 6.359 9.133 17.996 2.759 25.945zM567.294 812.324h-110.573v56.089c0 30.144 24.475 54.664 55.999 54.664 30.084 0 54.574-24.52 54.574-54.664v-56.089z" />
<glyph unicode="&#xe932;" glyph-name="chat" d="M170.667 525.397h221.867c9.438 0 17.067 7.646 17.067 17.067s-7.629 17.067-17.067 17.067h-221.867c-9.438 0-17.067-7.646-17.067-17.067s7.629-17.067 17.067-17.067zM614.4 457.131h-443.733c-9.438 0-17.067-7.646-17.067-17.067s7.629-17.067 17.067-17.067h443.733c9.438 0 17.067 7.646 17.067 17.067s-7.629 17.067-17.067 17.067zM614.4 354.731h-443.733c-9.438 0-17.067-7.646-17.067-17.067s7.629-17.067 17.067-17.067h443.733c9.438 0 17.067 7.646 17.067 17.067s-7.629 17.067-17.067 17.067zM922.829 916.736l-582.69 1.195c-55.808 0-101.205-45.397-101.205-101.205v-87.45l-137.728-0.29c-55.808 0-101.205-45.397-101.205-101.205v-360.806c0-55.808 45.397-101.188 101.205-101.188h103.595v-170.667c0-7.049 4.335-13.38 10.923-15.923 1.997-0.768 4.079-1.143 6.144-1.143 4.71 0 9.335 1.963 12.629 5.581l165.615 182.187 283.75 1.161c55.808 0 101.205 45.397 101.205 101.188v1.929l89.771-98.748c3.294-3.618 7.919-5.581 12.629-5.581 2.065 0 4.147 0.375 6.144 1.143 6.588 2.543 10.923 8.875 10.923 15.923v170.667h18.261c55.808 0 101.205 45.397 101.205 101.188v360.841c0 55.791-45.38 101.188-101.171 101.205zM750.933 268.186c0-36.983-30.089-67.055-67.14-67.055l-291.328-1.195c-4.779-0.017-9.353-2.048-12.561-5.581l-140.971-155.085v143.599c0 9.421-7.629 17.067-17.067 17.067h-120.661c-36.983 0-67.072 30.089-67.072 67.055v360.806c0 36.983 30.089 67.072 67.106 67.072l154.761 0.324c0 0 0 0 0 0 0.017 0 0.017 0 0.034 0l427.827 0.887c36.983 0 67.072-30.089 67.072-67.072v-360.823zM989.867 454.724c0-36.983-30.089-67.055-67.072-67.055h-35.328c-9.438 0-17.067-7.646-17.067-17.067v-143.599l-85.333 93.867v308.122c0 55.808-45.397 101.205-101.239 101.205l-410.761-0.836v87.381c0 36.983 30.089 67.072 67.038 67.072l582.673-1.195c0.017 0 0.017 0 0.034 0 36.983 0 67.072-30.089 67.072-67.072v-360.823z" />
<glyph unicode="&#xe934;" glyph-name="checkbox-pen-outline" d="M1009.802 833.119l-91.606 91.48c-9.458 9.458-21.895 14.198-34.31 14.198-12.436 0-24.873-4.719-34.31-14.177l-73.276-73.066 160.226-159.932 73.276 73.045c18.938 18.917 18.938 49.599 0 68.453zM300.655 376.769l160.226-159.953 441.356 440.538-160.226 159.953zM266.072 342.563l-34.205-194.054 194.431 34.121zM709.001 62.063h-604.12v604.099h426.34l105.070 104.86h-568.467c-37.309 0-67.823-30.514-67.823-67.823v-678.193c0-37.288 30.514-67.802 67.823-67.802h678.214c37.267 0 67.782 30.514 67.782 67.802v484.894l-104.86-104.692 0.042-343.144z" />
<glyph unicode="&#xe936;" glyph-name="checklist" d="M137.203-64h648.531c28.273 0 51.195 22.922 51.195 51.203v802.133h68.273c18.852 0 34.133 15.281 34.133 34.133v51.195c-0.063 47.109-38.234 85.281-85.336 85.336h-716.797c-28.281 0-51.203-22.922-51.203-51.203v-921.594c0-28.281 22.922-51.203 51.203-51.203zM854 925.867c28.273 0 51.203-22.922 51.203-51.203v-51.195h-682.672v51.195c-0.063 18.531-6.211 36.516-17.508 51.203zM120.133 908.797c0 9.43 7.641 17.070 17.070 17.070 28.273 0 51.195-22.922 51.195-51.203v-51.195c0-18.852 15.281-34.133 34.133-34.133h580.266v-802.133c0-9.43-7.641-17.070-17.063-17.070h-648.531c-9.43 0-17.070 7.641-17.070 17.070zM222.531 533.336h102.398c18.852 0 34.141 15.281 34.141 34.133v17.063c0 9.43-7.648 17.070-17.070 17.070s-17.070-7.641-17.070-17.070v-17.063h-102.398v102.398h51.203c9.422 0 17.063 7.641 17.063 17.063 0 9.43-7.641 17.070-17.063 17.070h-51.203c-18.852 0-34.133-15.281-34.133-34.133v-102.398c0-18.852 15.281-34.133 34.133-34.133zM222.531 294.398h102.398c18.852 0 34.141 15.281 34.141 34.133v102.398c0 18.852-15.289 34.141-34.141 34.141h-102.398c-18.852 0-34.133-15.289-34.133-34.141v-102.398c0-18.852 15.281-34.133 34.133-34.133zM222.531 430.93h102.398v-102.398h-102.398zM222.531 55.469h102.398c18.852 0 34.141 15.281 34.141 34.133v102.398c0 18.852-15.289 34.133-34.141 34.133h-102.398c-18.852 0-34.133-15.281-34.133-34.133v-102.398c0-18.852 15.281-34.133 34.133-34.133zM222.531 192h102.398v-102.398h-102.398zM427.336 635.734h85.328c9.43 0 17.070 7.641 17.070 17.063 0 9.43-7.641 17.070-17.070 17.070h-85.328c-9.43 0-17.070-7.641-17.070-17.070 0-9.422 7.641-17.063 17.070-17.063zM580.93 635.734h170.672c9.422 0 17.063 7.641 17.063 17.063 0 9.43-7.641 17.070-17.063 17.070h-170.672c-9.422 0-17.063-7.641-17.063-17.070 0-9.422 7.641-17.063 17.063-17.063zM427.336 567.469h170.664c9.422 0 17.070 7.641 17.070 17.063 0 9.43-7.648 17.070-17.070 17.070h-170.664c-9.43 0-17.070-7.641-17.070-17.070 0-9.422 7.641-17.063 17.070-17.063zM751.602 601.602h-85.336c-9.422 0-17.063-7.641-17.063-17.070 0-9.422 7.641-17.063 17.063-17.063h85.336c9.422 0 17.063 7.641 17.063 17.063 0 9.43-7.641 17.070-17.063 17.070zM427.336 396.797h85.328c9.43 0 17.070 7.641 17.070 17.070 0 9.422-7.641 17.063-17.070 17.063h-85.328c-9.43 0-17.070-7.641-17.070-17.063 0-9.43 7.641-17.070 17.070-17.070zM751.602 430.93h-170.672c-9.422 0-17.063-7.641-17.063-17.063 0-9.43 7.641-17.070 17.063-17.070h170.672c9.422 0 17.063 7.641 17.063 17.070 0 9.422-7.641 17.063-17.063 17.063zM427.336 328.531h170.664c9.422 0 17.070 7.641 17.070 17.070 0 9.422-7.648 17.063-17.070 17.063h-170.664c-9.43 0-17.070-7.641-17.070-17.063 0-9.43 7.641-17.070 17.070-17.070zM751.602 362.664h-85.336c-9.422 0-17.063-7.641-17.063-17.063 0-9.43 7.641-17.070 17.063-17.070h85.336c9.422 0 17.063 7.641 17.063 17.070 0 9.422-7.641 17.063-17.063 17.063zM427.336 157.867h85.328c9.43 0 17.070 7.641 17.070 17.063 0 9.43-7.641 17.070-17.070 17.070h-85.328c-9.43 0-17.070-7.641-17.070-17.070 0-9.422 7.641-17.063 17.070-17.063zM751.602 192h-170.672c-9.422 0-17.063-7.641-17.063-17.070 0-9.422 7.641-17.063 17.063-17.063h170.672c9.422 0 17.063 7.641 17.063 17.063 0 9.43-7.641 17.070-17.063 17.070zM427.336 89.602h170.664c9.422 0 17.070 7.641 17.070 17.063 0 9.43-7.648 17.070-17.070 17.070h-170.664c-9.43 0-17.070-7.641-17.070-17.070 0-9.422 7.641-17.063 17.070-17.063zM751.602 123.734h-85.336c-9.422 0-17.063-7.641-17.063-17.070 0-9.422 7.641-17.063 17.063-17.063h85.336c9.422 0 17.063 7.641 17.063 17.063 0 9.43-7.641 17.070-17.063 17.070zM268.734 647.797c-6.695 6.469-17.344 6.375-23.93-0.203-6.578-6.586-6.672-17.227-0.203-23.93l34.133-34.133c3.203-3.195 7.539-5 12.063-5h1.422c5 0.422 9.563 3.016 12.477 7.102l85.328 119.469c3.547 4.961 4.172 11.438 1.641 16.984-2.523 5.555-7.82 9.336-13.891 9.922s-11.992-2.117-15.531-7.078l-73.609-103.063z" />
<glyph unicode="&#xe944;" glyph-name="clock-circular-outline" d="M512 960c-282.317 0-512-229.683-512-512s229.683-512 512-512 512 229.683 512 512-229.683 512-512 512zM512 44.945c-222.243 0-403.066 180.802-403.066 403.055s180.823 403.055 403.066 403.055 403.066-180.802 403.066-403.055-180.823-403.055-403.066-403.055zM778.834 463.809h-230.094v276.657c0 23.281-18.876 42.157-42.157 42.157s-42.157-18.876-42.157-42.157v-318.814c0-23.281 18.876-42.157 42.157-42.157h272.252c23.281 0 42.157 18.876 42.157 42.157s-18.876 42.157-42.157 42.157z" />
<glyph unicode="&#xe952;" glyph-name="controls" d="M146.286 704c64.347 0 117.614 47.799 126.537 109.714h714.606c10.112 0 18.286 8.174 18.286 18.286s-8.174 18.286-18.286 18.286h-714.606c-8.923 61.915-62.19 109.714-126.537 109.714-70.583 0-128-57.435-128-128s57.417-128 128-128zM146.286 923.429c50.414 0 91.429-41.015 91.429-91.429s-41.015-91.429-91.429-91.429-91.429 41.015-91.429 91.429 41.015 91.429 91.429 91.429zM877.714 192c-64.347 0-117.614-47.799-126.537-109.714h-714.606c-10.094 0-18.286-8.174-18.286-18.286s8.192-18.286 18.286-18.286h714.606c8.923-61.915 62.19-109.714 126.537-109.714 70.565 0 128 57.435 128 128s-57.435 128-128 128zM877.714-27.429c-50.414 0-91.429 41.015-91.429 91.429s41.015 91.429 91.429 91.429 91.429-41.015 91.429-91.429-41.015-91.429-91.429-91.429zM987.429 466.286h-340.699c-7.241 65.865-63.177 117.285-130.944 117.285s-123.703-51.438-130.944-117.285h-348.27c-10.094 0-18.286-8.174-18.286-18.286s8.192-18.286 18.286-18.286h349.422c10.551-62.171 64.658-109.714 129.792-109.714s119.223 47.543 129.774 109.714h341.87c10.112 0 18.286 8.174 18.286 18.286s-8.174 18.286-18.286 18.286zM515.785 356.571c-52.498 0-95.214 42.715-95.214 95.214s42.715 95.214 95.214 95.214 95.214-42.715 95.214-95.214-42.715-95.214-95.214-95.214z" />
<glyph unicode="&#xe960;" glyph-name="dashboard" d="M452 256h-412c-22.092 0-40-17.908-40-40v-240c0-22.092 17.908-40 40-40h412c22.092 0 40 17.908 40 40v240c0 22.092-17.908 40-40 40zM412 16h-332v160h332v-160zM452 960h-412c-22.092 0-40-17.908-40-40v-584c0-22.092 17.908-40 40-40h412c22.092 0 40 17.908 40 40v584c0 22.092-17.908 40-40 40zM412 376h-332v504h332v-504zM984 960h-412c-22.092 0-40-17.908-40-40v-240c0-22.092 17.908-40 40-40h412c22.092 0 40 17.908 40 40v240c0 22.092-17.908 40-40 40zM944 720h-332v160h332v-160zM984 600h-412c-22.092 0-40-17.908-40-40v-584c0-22.092 17.908-40 40-40h412c22.092 0 40 17.908 40 40v584c0 22.092-17.908 40-40 40zM944 16h-332v504h332v-504z" />
<glyph unicode="&#xe963;" glyph-name="diagram" d="M85.339 857.588h221.864v-34.133h-221.864v34.133zM85.339 789.323h221.864v-34.133h-221.864v34.133zM85.339 721.057h153.598v-34.133h-153.598v34.133zM85.339 652.791h153.598v-34.133h-153.598v34.133zM0.006-29.867h1023.987v-34.133h-1023.987v34.133zM988.069 814.018l-68.266 136.532c-4.209 8.435-14.455 11.861-22.89 7.652-0.004-0.002-0.009-0.004-0.013-0.006l-136.532-68.266c-8.435-4.213-11.859-14.468-7.646-22.903s14.468-11.859 22.903-7.646l98.883 49.407-26.982-77.038c-118.597-337.762-424.063-574.721-780.705-605.62l2.901-34.133c370.080 32.059 687.040 277.981 810.042 628.489l27.545 78.71 50.21-100.436c4.213-8.435 14.468-11.859 22.903-7.646 8.437 4.213 11.859 14.466 7.646 22.903zM204.804 140.797h-119.465c-9.425 0-17.066-7.642-17.066-17.066v-102.399c0-9.425 7.642-17.066 17.066-17.066h119.465c9.425 0 17.066 7.642 17.066 17.066v102.399c0 9.425-7.642 17.066-17.066 17.066zM187.737 38.399h-85.332v68.266h85.332v-68.266zM392.535 191.997h-119.465c-9.425 0-17.066-7.642-17.066-17.066v-153.598c0-9.425 7.642-17.066 17.066-17.066h119.465c9.425 0 17.066 7.642 17.066 17.066v153.598c0 9.425-7.642 17.066-17.066 17.066zM375.468 38.399h-85.332v119.465h85.332v-119.465zM580.266 277.329h-119.465c-9.425 0-17.066-7.642-17.066-17.066v-238.93c0-9.425 7.642-17.066 17.066-17.066h119.465c9.425 0 17.066 7.642 17.066 17.066v238.93c0 9.425-7.642 17.066-17.066 17.066zM563.199 38.399h-85.332v204.797h85.332v-204.797zM767.997 396.794h-119.465c-9.425 0-17.066-7.642-17.066-17.066v-358.396c0-9.425 7.642-17.066 17.066-17.066h119.465c9.425 0 17.066 7.642 17.066 17.066v358.396c0 9.425-7.642 17.066-17.066 17.066zM750.93 38.399h-85.332v324.263h85.332v-324.263zM955.728 635.725h-119.465c-9.425 0-17.066-7.642-17.066-17.066v-597.326c0-9.425 7.642-17.066 17.066-17.066h119.465c9.425 0 17.066 7.642 17.066 17.066v597.326c0 9.425-7.642 17.066-17.066 17.066zM938.661 38.399h-85.332v563.193h85.332v-563.193z" />
<glyph unicode="&#xe965;" glyph-name="doc" d="M899.531 744.836l-205.453 205.453c-6.162 6.162-14.707 9.71-23.446 9.71h-512.388c-20.939 0-43.485-16.172-43.485-51.659v-937.031c0-14.777 14.866-29.184 32.45-33.721 0.883-0.23 1.73-0.565 2.648-0.742 2.754-0.547 5.561-0.847 8.386-0.847h707.513c2.825 0 5.632 0.3 8.386 0.847 0.918 0.177 1.766 0.512 2.648 0.742 17.585 4.537 32.45 18.944 32.45 33.721v741.906c0 13.542-1.624 23.534-9.71 31.62zM846.301 748.138h-148.921v148.921l148.921-148.921zM158.243-28.69c-1.254 0-2.383 0.459-3.496 0.865-2.754 1.306-4.679 4.061-4.679 7.309v256.653h723.862v-256.653c0-3.249-1.924-5.985-4.679-7.309-1.112-0.406-2.242-0.865-3.496-0.865h-707.513zM150.069 271.448v636.893c0 3.831 0.583 16.349 8.174 16.349h504.85c-0.583-2.225-1.024-4.52-1.024-6.903v-204.959h204.959c2.383 0 4.661 0.441 6.886 1.024 0-0.265 0.018-0.371 0.018-0.636v-441.768h-723.862zM410.218 158.455c-7.486 7.874-16.896 14.212-28.248 18.944s-24.505 7.115-39.459 7.115h-53.583v-177.894h67.337c2.242 0 5.703 0.282 10.381 0.847 4.661 0.565 9.816 1.836 15.448 3.866 5.632 2.013 11.458 5.032 17.496 9.057s11.458 9.534 16.296 16.543 8.81 15.695 11.953 26.077 4.714 22.899 4.714 37.535c0 10.628-1.854 20.974-5.544 31.020-3.708 10.028-9.304 18.997-16.79 26.889zM389.102 46.698c-8.686-12.553-22.846-18.82-42.478-18.82h-28.725v134.691h16.896c13.842 0 25.106-1.818 33.792-5.438s15.572-8.369 20.639-14.248 8.474-12.429 10.258-19.668c1.766-7.239 2.648-14.566 2.648-21.963 0-23.817-4.343-42.019-13.030-54.554zM587.299 164.246c-6.674 7.574-14.477 13.312-23.411 17.267s-18.714 5.914-29.325 5.914-20.392-1.96-29.325-5.914-16.737-9.693-23.411-17.267c-6.674-7.574-11.917-17.020-15.695-28.354-3.778-11.352-5.667-24.505-5.667-39.459s1.889-28.16 5.667-39.583c3.778-11.423 9.004-20.921 15.695-28.478 6.674-7.574 14.477-13.277 23.411-17.143s18.714-5.791 29.325-5.791 20.392 1.924 29.325 5.791 16.737 9.569 23.411 17.143c6.674 7.574 11.9 17.055 15.695 28.478 3.778 11.423 5.667 24.629 5.667 39.583s-1.889 28.125-5.667 39.459c-3.796 11.335-9.022 20.78-15.695 28.354zM575.347 64.918c-2.419-8.598-5.756-15.572-10.010-20.886-4.273-5.314-9.092-9.145-14.477-11.458-5.402-2.33-11.070-3.496-17.020-3.496-5.791 0-11.317 1.236-16.543 3.743s-9.905 6.426-14.001 11.829-7.327 12.341-9.657 20.886c-2.33 8.527-3.584 18.82-3.743 30.897 0.159 12.394 1.448 22.846 3.866 31.373s5.756 15.484 10.010 20.886c4.255 5.402 9.092 9.198 14.477 11.458s11.052 3.372 17.020 3.372c5.791 0 11.299-1.201 16.543-3.619 5.226-2.419 9.905-6.356 14.001-11.829s7.327-12.429 9.657-20.886c2.33-8.457 3.584-18.714 3.743-30.773-0.177-12.394-1.448-22.899-3.866-31.497zM689.646 148.674c4.255 5.402 9.092 9.198 14.477 11.458s11.052 3.372 17.020 3.372c5.314 0 10.417-1.059 15.325-3.143s9.375-5.473 13.4-10.134l20.039 17.867c-6.603 6.426-14.089 11.264-22.44 14.477-8.369 3.231-17.373 4.82-27.030 4.82-10.47 0-20.198-1.96-29.202-5.914-9.022-3.955-16.861-9.693-23.534-17.267s-11.917-17.020-15.695-28.354c-3.778-11.352-5.667-24.505-5.667-39.459s1.889-28.16 5.667-39.583c3.778-11.423 9.004-20.921 15.695-28.478 6.674-7.574 14.477-13.277 23.411-17.143s18.714-5.791 29.325-5.791c9.657 0 18.662 1.607 27.030 4.82 8.369 3.231 15.837 8.051 22.44 14.477l-20.039 17.62c-4.184-4.679-8.81-8.051-13.877-10.134s-10.505-3.143-16.296-3.143-11.317 1.236-16.543 3.743c-5.226 2.507-9.905 6.426-14.001 11.829s-7.327 12.341-9.657 20.886c-2.33 8.527-3.584 18.82-3.743 30.897 0.159 12.394 1.448 22.846 3.866 31.373s5.756 15.501 10.028 20.904zM238.345 712.828h105.931c9.746 0 17.655 7.91 17.655 17.655s-7.91 17.655-17.655 17.655h-105.931c-9.746 0-17.655-7.91-17.655-17.655s7.91-17.655 17.655-17.655zM238.345 624.552h158.897c9.746 0 17.655 7.91 17.655 17.655s-7.91 17.655-17.655 17.655h-158.897c-9.746 0-17.655-7.91-17.655-17.655s7.91-17.655 17.655-17.655zM467.862 624.552c4.59 0 9.181 1.942 12.535 5.12 3.178 3.354 5.12 7.945 5.12 12.535s-1.942 9.181-5.12 12.535c-6.532 6.532-18.538 6.532-25.070 0-3.178-3.354-5.12-7.945-5.12-12.535s1.942-9.181 5.12-12.535c3.354-3.178 7.945-5.12 12.535-5.12zM538.483 624.552h141.241c9.746 0 17.655 7.91 17.655 17.655s-7.91 17.655-17.655 17.655h-141.241c-9.746 0-17.655-7.91-17.655-17.655s7.91-17.655 17.655-17.655zM225.81 389.914c-3.178-3.354-5.12-7.945-5.12-12.535s1.942-9.181 5.12-12.535c3.354-3.178 7.945-5.12 12.535-5.12s9.181 1.942 12.535 5.12c3.178 3.354 5.12 7.945 5.12 12.535 0 4.767-1.942 9.181-5.12 12.535-6.532 6.532-18.538 6.532-25.070 0zM450.207 395.034h-141.241c-9.746 0-17.655-7.91-17.655-17.655s7.91-17.655 17.655-17.655h141.241c9.746 0 17.655 7.91 17.655 17.655s-7.91 17.655-17.655 17.655zM785.655 659.862h-35.31c-9.746 0-17.655-7.91-17.655-17.655s7.91-17.655 17.655-17.655h35.31c9.746 0 17.655 7.91 17.655 17.655s-7.91 17.655-17.655 17.655zM238.345 536.276h388.414c9.746 0 17.655 7.91 17.655 17.655s-7.91 17.655-17.655 17.655h-388.414c-9.746 0-17.655-7.91-17.655-17.655s7.91-17.655 17.655-17.655zM785.655 571.586h-105.931c-9.746 0-17.655-7.91-17.655-17.655s7.91-17.655 17.655-17.655h105.931c9.746 0 17.655 7.91 17.655 17.655s-7.91 17.655-17.655 17.655zM238.345 448h70.621c9.746 0 17.655 7.91 17.655 17.655s-7.91 17.655-17.655 17.655h-70.621c-9.746 0-17.655-7.91-17.655-17.655s7.91-17.655 17.655-17.655zM556.138 483.31h-176.552c-9.746 0-17.655-7.91-17.655-17.655s7.91-17.655 17.655-17.655h176.552c9.746 0 17.655 7.91 17.655 17.655s-7.91 17.655-17.655 17.655zM785.655 483.31h-158.897c-9.746 0-17.655-7.91-17.655-17.655s7.91-17.655 17.655-17.655h158.897c9.746 0 17.655 7.91 17.655 17.655s-7.91 17.655-17.655 17.655z" />
<glyph unicode="&#xe966;" glyph-name="doc-file-format-symbol" d="M522.41 191.118c-34.544 0-54.686-32.882-54.686-76.822 0-44.293 20.803-75.489 55.020-75.489 34.568 0 54.353 32.882 54.353 76.822 0 40.607-19.452 75.489-54.688 75.489zM265.053 190.451c-11.413 0-18.805-1-23.157-2v-147.959c4.352-1.021 11.411-1.021 17.779-1.021 46.288-0.335 76.486 25.176 76.486 79.176 0.353 46.982-27.165 71.804-71.107 71.804zM883.254 714.612c-0.059 4.696-1.549 9.335-4.774 13.001l-197.443 225.519c-0.039 0.063-0.099 0.084-0.156 0.141-1.177 1.314-2.528 2.398-3.98 3.354-0.431 0.279-0.864 0.53-1.314 0.785-1.275 0.68-2.59 1.246-3.962 1.658-0.372 0.108-0.705 0.26-1.078 0.357-1.508 0.361-3.038 0.573-4.607 0.573h-485.233c-22.138 0-40.157-18.020-40.157-40.159v-943.685c0-22.148 18.019-40.159 40.157-40.159h662.587c22.157 0 40.159 18.011 40.159 40.159v736.206c-0.002 0.755-0.119 1.495-0.197 2.25zM352.96 28.745c-23.823-19.803-60.059-29.195-104.357-29.195-26.515 0-45.299 1.686-58.040 3.354v222.097c18.784 3.019 43.28 4.705 69.122 4.705 42.936 0 70.784-7.726 92.589-24.157 23.495-17.451 38.259-45.294 38.259-85.216-0.007-43.284-15.767-73.136-37.573-91.587zM520.056-1.803c-67.097 0-106.352 50.666-106.352 115.088 0 67.774 43.28 118.431 110.039 118.431 69.449 0 107.373-52.010 107.373-114.402 0.002-74.156-44.961-119.117-111.060-119.117zM780.43 40.804c15.431 0 32.549 3.372 42.607 7.384l7.725-39.923c-9.392-4.717-30.528-9.734-58.040-9.734-78.176 0-118.431 48.657-118.431 113.067 0 77.157 55.020 120.106 123.451 120.106 26.511 0 46.647-5.364 55.706-10.069l-10.413-40.588c-10.383 4.354-24.825 8.394-42.932 8.394-40.588 0-72.147-24.501-72.147-74.824 0.004-45.284 26.846-73.814 72.474-73.814zM180.706 278.167v641.674h465.155v-205.46c0-11.082 8.981-20.078 20.078-20.078h177.354l0.020-416.136h-662.607zM461.102 682.808h146.111c7.334 0 13.295 5.951 13.295 13.298s-5.96 13.304-13.295 13.304h-146.111c-7.349 0-13.285-5.957-13.285-13.304-0.009-7.347 5.921-13.298 13.285-13.298zM678.685 603.006h-363.495c-7.347 0-13.313-5.951-13.313-13.298 0-7.353 5.966-13.295 13.313-13.295h363.495c7.353 0 13.315 5.942 13.315 13.295 0 7.345-5.951 13.298-13.315 13.298zM353.181 656.162l12.318 50.079c3.151 12.157 5.215 22.425 7.119 33.799h0.309c1.255-11.525 3.151-21.642 5.834-33.799l11.073-50.079h20.863l28.569 106.466h-19.746l-11.054-48.177c-2.843-12.96-5.384-25.107-7.269-36.814h-0.329c-1.569 11.534-3.785 23.382-6.466 36.020l-10.584 48.96h-20.376l-11.515-48.177c-3.025-13.423-6.044-26.074-7.76-37.275h-0.294c-1.736 10.578-4.274 24.172-6.966 37.123l-10.112 48.329h-20.696l26.068-106.466 21.014 0.011zM678.685 497.362h-363.495c-7.347 0-13.313-5.951-13.313-13.304 0-7.347 5.966-13.298 13.313-13.298h363.495c7.353 0 13.315 5.951 13.315 13.298 0 7.353-5.951 13.304-13.315 13.304zM678.685 389.197h-363.495c-7.347 0-13.313-5.96-13.313-13.313 0-7.343 5.966-13.295 13.313-13.295h363.495c7.353 0 13.315 5.951 13.315 13.295 0 7.353-5.951 13.313-13.315 13.313z" />
<glyph unicode="&#xe967;" glyph-name="document-1" d="M119.171 840.594v-887.020c0-9.422 7.638-17.060 17.060-17.060h648.208c9.415 0 17.053 7.638 17.053 17.060v716.434c0 0.379-0.183 0.703-0.218 1.075-0.084 1.497-0.379 2.972-0.871 4.384-0.19 0.548-0.323 1.075-0.562 1.609-0.829 1.855-1.981 3.548-3.415 4.996l-170.579 170.579c-1.447 1.44-3.148 2.593-5.017 3.415-0.513 0.218-1.033 0.401-1.567 0.562-1.426 0.492-2.909 0.787-4.42 0.885-0.288-0.049-0.625 0.133-0.984 0.133h-477.63c-9.422 0-17.060-7.631-17.060-17.053zM743.258 687.069h-112.344v112.344zM153.284 823.534h443.517v-153.526c0-9.415 7.638-17.053 17.053-17.053h153.526v-682.328h-614.096zM835.612 72.98v-34.113h51.173c9.422 0 17.060 7.631 17.060 17.053v887.020c0 9.422-7.638 17.060-17.060 17.060h-648.208c-9.422 0-17.060-7.638-17.060-17.060v-51.173h34.12v34.12h614.089v-852.907zM255.637 618.836h409.39v-34.113h-409.39zM255.637 721.189h136.466v-34.12h-136.466zM255.637 516.49h272.931v-34.12h-272.931zM562.681 516.49h102.346v-34.12h-102.346zM255.637 414.144h409.39v-34.12h-409.39zM255.637 209.446h409.39v-34.12h-409.39zM409.155 311.792h255.871v-34.113h-255.871zM255.637 311.792h119.406v-34.113h-119.406zM255.637 107.093h68.233v-34.113h-68.233zM357.983 107.093h307.044v-34.113h-307.044z" />
<glyph unicode="&#xe968;" glyph-name="document" d="M119.171 840.594v-887.020c0-9.422 7.638-17.060 17.060-17.060h648.208c9.415 0 17.053 7.638 17.053 17.060v716.434c0 0.379-0.183 0.703-0.218 1.075-0.084 1.497-0.379 2.972-0.871 4.384-0.19 0.548-0.323 1.075-0.562 1.609-0.829 1.855-1.981 3.548-3.415 4.996l-170.579 170.579c-1.447 1.44-3.148 2.593-5.017 3.415-0.513 0.218-1.033 0.401-1.567 0.562-1.426 0.492-2.909 0.787-4.42 0.885-0.288-0.049-0.625 0.133-0.984 0.133h-477.63c-9.422 0-17.060-7.631-17.060-17.053zM743.258 687.069h-112.344v112.344zM153.284 823.534h443.517v-153.526c0-9.415 7.638-17.053 17.053-17.053h153.526v-682.328h-614.096zM835.612 72.98v-34.113h51.173c9.422 0 17.060 7.631 17.060 17.053v887.020c0 9.422-7.638 17.060-17.060 17.060h-648.208c-9.422 0-17.060-7.638-17.060-17.060v-51.173h34.12v34.12h614.089v-852.907zM255.637 618.836h409.39v-34.113h-409.39zM255.637 721.189h136.466v-34.12h-136.466zM255.637 516.49h272.931v-34.12h-272.931zM562.681 516.49h102.346v-34.12h-102.346zM255.637 414.144h409.39v-34.12h-409.39zM255.637 209.446h409.39v-34.12h-409.39zM409.155 311.792h255.871v-34.113h-255.871zM255.637 311.792h119.406v-34.113h-119.406zM255.637 107.093h68.233v-34.113h-68.233zM357.983 107.093h307.044v-34.113h-307.044z" />
<glyph unicode="&#xe96a;" glyph-name="double-angle-pointing-to-right" d="M997.33 471.604l-478.157 478.129c-6.825 6.835-14.695 10.267-23.59 10.267-8.884 0-16.743-3.432-23.582-10.267l-51.309-51.301c-6.839-6.839-10.253-14.695-10.253-23.6s3.414-16.761 10.253-23.6l403.248-403.238-403.245-403.248c-6.839-6.839-10.253-14.709-10.253-23.59 0-8.902 3.414-16.772 10.253-23.611l51.309-51.287c6.835-6.846 14.695-10.257 23.582-10.257 8.905 0 16.765 3.418 23.586 10.257l478.157 478.132c6.835 6.835 10.246 14.709 10.246 23.6s-3.411 16.761-10.246 23.615zM613.575 447.989c0 8.891-3.403 16.765-10.267 23.615l-478.125 478.129c-6.835 6.835-14.706 10.267-23.597 10.267s-16.765-3.432-23.6-10.267l-51.298-51.305c-6.85-6.839-10.264-14.695-10.264-23.6s3.414-16.761 10.264-23.6l403.238-403.238-403.238-403.245c-6.85-6.839-10.264-14.709-10.264-23.59 0-8.902 3.414-16.772 10.264-23.611l51.294-51.287c6.839-6.846 14.709-10.257 23.6-10.257s16.761 3.418 23.6 10.257l478.125 478.132c6.864 6.835 10.267 14.709 10.267 23.6z" />
<glyph unicode="&#xe96b;" glyph-name="double-left-chevron" d="M594.082 447.987l403.28 403.237c6.836 6.839 10.232 14.71 10.232 23.601 0 8.895-3.418 16.765-10.232 23.601l-51.313 51.306c-6.836 6.836-14.71 10.268-23.587 10.268-8.906 0-16.765-3.432-23.615-10.268l-478.158-478.14c-6.839-6.839-10.253-14.71-10.253-23.601 0-8.895 3.414-16.762 10.253-23.601l478.158-478.14c6.839-6.85 14.685-10.246 23.59-10.246s16.747 3.403 23.587 10.246l51.31 51.274c6.836 6.839 10.246 14.713 10.246 23.612 0 8.884-3.407 16.751-10.246 23.59l-403.251 403.262zM200.064 447.987l403.24 403.237c6.839 6.839 10.246 14.71 10.246 23.601 0 8.895-3.403 16.765-10.246 23.601l-51.285 51.306c-6.839 6.836-14.71 10.268-23.59 10.268-8.906 0-16.776-3.432-23.612-10.268l-478.162-478.14c-6.839-6.839-10.253-14.71-10.253-23.601 0-8.895 3.414-16.762 10.253-23.601l478.158-478.14c6.836-6.85 14.699-10.246 23.612-10.246 8.88 0 16.751 3.403 23.587 10.246l51.288 51.274c6.839 6.839 10.246 14.713 10.246 23.612 0 8.884-3.403 16.751-10.246 23.59l-403.237 403.262z" />
<glyph unicode="&#xe96c;" glyph-name="down-arrow" d="M1024 448c0 282.31-229.69 512-512 512s-512-229.69-512-512 229.69-512 512-512 512 229.69 512 512zM51.158 448c0 254.121 206.721 460.842 460.842 460.842s460.842-206.721 460.842-460.842-206.721-460.842-460.842-460.842-460.842 206.721-460.842 460.842zM530.166 207.452l143.869 143.869c10.023 10.023 10.023 26.101 0 36.124s-26.101 10.023-36.124 0l-100.228-100.228v383.165c0 14.199-11.485 25.684-25.684 25.684s-25.684-11.485-25.684-25.684v-382.956l-100.228 100.228c-10.023 10.023-26.101 10.023-36.124 0s-10.023-26.101 0-36.124l143.869-143.869c5.011-5.011 11.485-7.517 18.166-7.517s13.155 2.297 18.166 7.308z" />
<glyph unicode="&#xe96d;" glyph-name="down-arrow-in-circular-button" d="M512 960c-282.751 0-512-229.249-512-512s229.249-512 512-512 512 229.249 512 512-229.249 512-512 512zM512 32c-229.376 0-416 186.624-416 416s186.624 416 416 416 416-186.624 416-416-186.624-416-416-416zM688.001 576c-14.016 0-26.497-6.080-35.264-15.648l-0.127 0.095-140.609-153.408-140.639 153.409-0.129-0.095c-8.736 9.567-21.216 15.648-35.233 15.648-26.495 0-48.001-21.504-48.001-48.001 0-12.512 4.896-23.776 12.736-32.351l-0.129-0.095 176.001-192c9.121-9.889 21.921-15.552 35.392-15.552s26.271 5.664 35.36 15.552l176.001 191.998-0.127 0.095c7.872 8.575 12.768 19.839 12.768 32.351 0 26.497-21.504 48.001-47.999 48.001z" />
<glyph unicode="&#xe96f;" glyph-name="download-arrow-with-bar" d="M933.567 598.657h-240.938v361.343h-361.3v-361.343h-240.938l421.59-421.716 421.588 421.716zM90.39 56.619v-120.619h843.22v120.619h-843.22z" />
<glyph unicode="&#xe971;" glyph-name="download-from-cloud" d="M576 528h-128v-256h-96l160-192 160 192h-96zM882.752 553.216c-29.632 78.752-105.664 134.784-194.752 134.784-20.512 0-40.32-2.976-59.072-8.512-50.752 81.952-141.472 136.512-244.928 136.512-156.928 0-284.608-125.568-287.936-281.696-57.44-33.248-96.064-95.36-96.064-166.304 0-105.984 86.016-192 192-192h144l-53.344 64h-90.752c-70.496 0-127.904 57.312-127.904 128 0 60.576 42.144 111.424 98.784 124.672-1.856 11.488-2.784 23.296-2.784 35.328 0 123.712 100.288 224 224 224 101.184 0 186.688-67.104 214.464-159.2 24.608 19.552 55.648 31.2 89.536 31.2 74.112 0 135.2-56 143.136-128h0.96c70.496 0 127.904-57.312 127.904-128 0-70.56-57.248-128-127.904-128h-90.752l-53.344-64h144c105.984 0 192 86.176 192 192 0 88.48-59.84 162.976-141.248 185.216z" />
<glyph unicode="&#xe976;" glyph-name="edit-document" d="M64 64v768c0 35.312 28.752 64 64 64h640c35.312 0 64-28.688 64-64v-376.248l64 64v312.248c0 70.688-57.312 128-128 128h-640c-70.688 0-128-57.312-128-128v-768c0-70.688 57.312-128 128-128h352v64h-352c-35.248 0-64 28.688-64 64zM704 768h-512v-64h512v64zM704 640h-512v-64h512v64zM704 512h-512v-64h512v64zM192 320h256v64h-256v-64zM1005.248 384l-45.248 45.248c-12.504 12.504-28.872 18.752-45.248 18.752s-32.752-6.248-45.248-18.752l-274.752-274.752c-12.504-12.496-50.752-60.84-50.752-77.216l-32-141.28 141.248 32c0 0 64.752 38.248 77.248 50.752l274.752 274.752c25 24.992 25 65.528 0 90.496zM707.936 41.44c-3.624-3.44-16.16-11.904-31.472-21.656l-82.904 82.904c8.504 11.656 17.968 23.376 23.816 29.184l206.872 206.872 90.504-90.504-206.816-206.8z" />
<glyph unicode="&#xe977;" glyph-name="envelope" d="M898.993 837.641h-773.774c-69.072 0-125.219-56.147-125.219-125.219v-528.844c0-69.072 56.147-125.219 125.219-125.219h773.562c69.072 0 125.219 56.147 125.219 125.219v528.632c0.212 69.072-55.935 125.431-125.007 125.431zM967.005 183.578c0-37.502-30.51-68.012-68.012-68.012h-773.774c-37.502 0-68.012 30.51-68.012 68.012v528.632c0 37.502 30.51 68.012 68.012 68.012h773.562c37.502 0 68.012-30.51 68.012-68.012v-528.632h0.212zM645.8 454.568l250.438 224.589c11.653 10.594 12.713 28.603 2.119 40.468-10.594 11.653-28.603 12.713-40.468 2.119l-345.359-309.976-67.377 60.173c-0.212 0.212-0.424 0.424-0.424 0.636-1.483 1.483-2.966 2.754-4.661 4.026l-274.168 245.353c-11.865 10.594-29.875 9.534-40.468-2.331s-9.534-29.875 2.331-40.468l253.405-226.496-252.345-236.242c-11.441-10.806-12.077-28.815-1.271-40.468 5.721-5.933 13.348-9.111 20.976-9.111 6.992 0 13.984 2.543 19.493 7.628l256.159 239.633 69.496-62.080c5.509-4.873 12.289-7.204 19.069-7.204s13.772 2.543 19.069 7.416l71.402 63.987 254.676-241.963c5.509-5.297 12.713-7.839 19.705-7.839 7.628 0 15.043 2.966 20.764 8.899 10.806 11.441 10.382 29.663-1.059 40.468l-251.498 238.785z" />
<glyph unicode="&#xe978;" glyph-name="excel-file" d="M743.028 576h-135.292l-95.73-141.032-95.744 141.032h-135.288l162.162-242.464-182.974-269.536h262.24v91.576h-60.556l50.156 74.994 111.396-166.57h140.442l-182.976 269.536 162.164 242.464zM903.434 760.57l-142.868 142.862c-31.108 31.112-92.566 56.568-136.566 56.568h-480c-44 0-80-36-80-80v-864c0-44 36-80 80-80h736c44 0 80 36 80 80v608c0 44-25.458 105.458-56.566 136.57zM858.18 715.314c3.128-3.13 6.25-6.974 9.278-11.314h-163.458v163.456c4.34-3.030 8.184-6.15 11.312-9.28l142.868-142.862zM896 16c0-8.672-7.328-16-16-16h-736c-8.672 0-16 7.328-16 16v864c0 8.672 7.328 16 16 16h480c4.832 0 10.254-0.61 16-1.704v-254.296h254.296c1.094-5.746 1.704-11.166 1.704-16v-608z" />
<glyph unicode="&#xe979;" glyph-name="exit" d="M502.328 708.552l-75.661-73.387 102.4-102.4 66.56-27.877h-567.181v-113.776h566.043l-67.696-30.152-100.693-100.125 76.8-72.816 259.981 259.981zM369.779 960h-113.779v-227.555h113.779v113.776h512v-796.443h-512v113.776h-113.779v-227.555h739.555v1024z" />
<glyph unicode="&#xe97d;" glyph-name="facebook-1" d="M581-62h-163.984c-27.391 0-49.672 22.281-49.672 49.672v369.875h-95.672c-27.391 0-49.672 22.289-49.672 49.672v158.492c0 27.391 22.281 49.672 49.672 49.672h95.672v79.367c0 78.695 24.711 145.648 71.453 193.609 46.953 48.18 112.57 73.641 189.758 73.641l125.063-0.203c27.344-0.047 49.586-22.328 49.586-49.672v-147.156c0-27.391-22.273-49.672-49.656-49.672l-84.203-0.031c-25.68 0-32.219-5.148-33.617-6.727-2.305-2.617-5.047-10.016-5.047-30.445v-62.703h116.539c8.773 0 17.273-2.164 24.578-6.242 15.758-8.805 25.555-25.453 25.555-43.445l-0.063-158.492c0-27.375-22.281-49.656-49.672-49.656h-116.938v-369.883c0-27.391-22.289-49.672-49.68-49.672zM427.375-1.969h143.266v386.391c0 18.289 14.883 33.164 33.164 33.164h133.453l0.055 137.766h-133.516c-18.281 0-33.156 14.875-33.156 33.164v89.578c0 23.453 2.383 50.125 20.086 70.172 21.391 24.234 55.102 27.031 78.602 27.031l73.844 0.031v126.453l-114.664 0.188c-124.047 0-201.133-79.406-201.133-207.219v-106.234c0-18.281-14.875-33.164-33.156-33.164h-112.188v-137.766h112.188c18.281 0 33.156-14.875 33.156-33.164zM753.5 901.766h0.008z" />
<glyph unicode="&#xe988;" glyph-name="finger-of-a-hand-pointing-to-right-direction" d="M980.567 624.008c-28.959 28.951-63.248 43.427-102.862 43.427h-213.712c8.384 22.854 12.575 47.236 12.575 73.143 0 46.471-15.527 82.467-46.576 107.998-31.054 25.52-70.383 38.28-117.999 38.28-14.474 0-27.718-3.332-39.719-10.003-12.001-6.661-22.478-16.096-31.429-28.276-8.948-12.191-16.664-24.191-23.137-36.004-6.483-11.811-13.532-25.522-21.147-41.14-7.617-15.627-13.9-27.432-18.852-35.436-13.332-20.955-32.383-45.517-57.139-73.711-0.765-1.143-3.432-4.383-8.004-9.715-4.571-5.336-8.192-9.431-10.856-12.287s-6.565-6.953-11.712-12.287c-5.152-5.336-9.723-9.617-13.718-12.857-4.001-3.24-8.284-6.665-12.857-10.287-4.571-3.621-9.049-6.285-13.43-8.004-4.377-1.711-8.472-2.568-12.281-2.568h-164.567c-20.195 0-37.435-7.155-51.719-21.435-14.28-14.274-21.427-31.515-21.427-51.705v-365.714c0-20.191 7.139-37.429 21.427-51.717 14.292-14.282 31.523-21.431 51.719-21.431h164.567c22.472 0 64.945-11.246 127.424-33.72 71.996-26.287 133.328-39.416 183.997-39.416 53.711 0 96.95 15.335 129.711 45.999 32.76 30.656 48.957 72.464 48.569 125.43 22.87 29.335 34.295 63.24 34.295 101.711 0 8.376-0.576 16.566-1.711 24.566 12.575 21.714 19.622 44.384 21.149 68.001h96.574c40.001 0 74.384 14.472 103.15 43.423 28.753 28.949 43.131 63.422 43.131 103.417-0.012 39.246-14.49 73.345-43.435 102.32zM135.428 166.276c-7.241-7.239-15.809-10.856-25.713-10.856-9.911 0-18.483 3.617-25.719 10.856-7.241 7.239-10.856 15.807-10.856 25.713s3.617 18.479 10.856 25.715c7.243 7.239 15.807 10.862 25.719 10.862 9.903 0 18.471-3.623 25.713-10.862 7.237-7.233 10.856-15.807 10.856-25.715 0-9.905-3.621-18.473-10.856-25.713zM929.13 469.679c-14.466-14.476-31.631-21.712-51.439-21.712h-189.134c5.712-6.473 10.472-15.527 14.28-27.144 3.815-11.616 5.72-22.192 5.72-31.713 0-26.289-10.097-48.945-30.288-67.987 6.863-12.191 10.287-25.342 10.287-39.43 0-14.096-3.336-28.094-9.999-41.998-6.671-13.896-15.719-23.897-27.15-29.994 1.903-11.41 2.862-22.088 2.862-31.999 0-63.6-35.998-95.409-107.998-95.409-30.86 0-65.051 6.094-102.572 18.273-37.523 12.185-74.38 24.384-110.572 36.574-36.192 12.183-67.997 18.279-95.429 18.279h-18.283v365.704h18.283c27.045 0 53.709 10.86 79.996 32.581 11.434 9.531 30.672 29.723 57.716 60.576 27.432 30.852 48.767 58.464 64 82.852 4.952 8.004 12.001 20.385 21.147 37.145 25.142 52.954 42.284 79.425 51.431 79.425 27.047 0 49.047-5.808 66-17.423 16.952-11.622 25.424-30.188 25.424-55.71 0-16.384-2.856-32.479-8.568-48.287-5.718-15.807-11.999-28.765-18.856-38.856s-13.143-20.571-18.858-31.429c-5.712-10.856-8.566-20.096-8.566-27.712h329.141c19.040 0 35.998-7.335 50.861-22 14.851-14.675 22.274-31.709 22.274-51.143 0-19.826-7.233-36.967-21.712-51.465z" />
<glyph unicode="&#xe98a;" glyph-name="folder-1" d="M981.163 593.067h-42.496v119.467h-34.133v68.267h-476.399l-60.945 85.333h-320.563c-25.702 0-46.626-20.924-46.626-46.626v-745.591h0.102c-0.085-9.609 2.901-19.012 8.909-26.88 8.363-10.923 21.026-17.169 34.765-17.169h763.887c19.729 0 37.103 13.295 41.813 30.942l174.524 478.515v3.021c0 29.389-18.022 50.722-42.837 50.722zM904.533 593.067h-136.533v17.067c0 9.438-7.646 17.067-17.067 17.067s-17.067-7.629-17.067-17.067v-17.067h-85.333v17.067c0 9.438-7.646 17.067-17.067 17.067s-17.067-7.629-17.067-17.067v-17.067h-85.333v17.067c0 9.438-7.646 17.067-17.067 17.067s-17.067-7.629-17.067-17.067v-17.067h-85.333v17.067c0 9.438-7.646 17.067-17.067 17.067s-17.067-7.629-17.067-17.067v-17.067h-85.333v17.067c0 9.438-7.646 17.067-17.067 17.067s-17.067-7.629-17.067-17.067v-17.067h-38.724c-2.441 0-4.847-0.205-7.202-0.597-8.516-1.417-16.213-5.376-22.34-10.906v96.836h716.8v-85.333zM85.333 314.999v261.001h97.195c-3.209-4.147-5.717-8.806-7.066-13.875l-5.41-14.848-84.719-232.277zM153.6 610.133h-44.134l44.134 44.134v-44.134zM870.4 746.667v-34.133h-706.799l-44.134-44.134v78.268h750.933zM34.133 819.507c0 6.895 5.615 12.493 12.493 12.493h302.985l36.574-51.2h-300.851v-146.534l-34.133-34.133v-376.917l-17.067-46.558v642.85zM816.964 71.117c-1.126-4.181-4.966-7.117-9.301-7.117h-763.887c-4.147 0-6.571 2.372-7.646 3.789-1.075 1.399-2.731 4.369-2.099 6.963l173.5 475.665 0.444 1.399c1.126 4.181 4.966 7.117 9.301 7.117h763.887c6.485 0 8.141-9.318 8.567-13.978l-172.766-473.839z" />
<glyph unicode="&#xe997;" glyph-name="gmail" d="M928 832h-832c-52.992 0-96-43.008-96-96v-576c0-52.992 43.008-96 96-96h832c52.992 0 96 43.008 96 96v576c0 52.992-43.008 96-96 96zM814.976 768l-302.976-239.232-302.976 239.232h605.952zM896 128h-768v534.656l384-295.36 384 295.424v-534.72z" />
<glyph unicode="&#xe99d;" glyph-name="help" d="M746.155 901.661c-71.948 38.103-152.087 58.124-233.501 58.339-277.104 0.049-501.782-224.547-501.831-501.651-0.025-130.797 51.032-256.434 142.285-350.14l-20.963-149.118c-1.829-10.769 5.414-20.981 16.182-22.81 4.971-0.845 10.076 0.24 14.274 3.033l113.915 75.548c244.882-129.687 548.532-36.3 678.219 208.582s36.303 548.532-208.579 678.216zM841.531 133.536c-86.803-88.024-205.252-137.603-328.877-137.659-79.59-0.109-157.859 20.326-227.236 59.331-6.118 3.533-13.658 3.533-19.777 0l-89.194-57.946 17.206 114.904c0.853 6.195-1.273 12.43-5.735 16.81-181.75 179.23-183.792 471.864-4.561 653.614s471.864 183.792 653.614 4.561 183.792-471.864 4.561-653.614zM625.975 280.664h-16.415v292.302c0 10.922-8.855 19.777-19.777 19.777h-170.674c-10.922 0-19.777-8.855-19.777-19.777v-71.197c0-10.922 8.855-19.777 19.777-19.777h16.613v-201.329h-16.613c-10.922 0-19.777-8.855-19.777-19.777v-71.197c0-10.922 8.855-19.777 19.777-19.777h206.866c10.922 0 19.777 8.855 19.777 19.777v71.197c0 10.922-8.855 19.777-19.777 19.777zM438.886 209.467v31.643h16.613c10.922 0 19.777 8.855 19.777 19.777v240.882c0 10.922-8.855 19.777-19.777 19.777h-16.613v31.643h130.923v-292.302c0-10.922 8.855-19.777 19.777-19.777h16.415l0.198-31.643h-167.312zM512.654 785.963c-45.766 0-82.865-37.099-82.865-82.865s37.099-82.865 82.865-82.865 82.865 37.099 82.865 82.865c0 45.766-37.101 82.865-82.865 82.865zM512.654 659.589c-23.92 0-43.311 19.391-43.311 43.311-0.109 23.92 19.193 43.4 43.114 43.509 0.067 0 0.131 0 0.198 0v-0.198c23.92 0 43.311-19.391 43.311-43.311s-19.391-43.311-43.311-43.311z" />
<glyph unicode="&#xe9a1;" glyph-name="icon-1" d="M763.262 743.884c39.243 0 71.031 31.577 71.031 70.89v74.195c0 39.348-31.753 71.031-71.031 71.031s-70.995-31.647-70.995-71.031v-74.23c0.035-39.278 31.753-70.855 70.995-70.855zM1015.596 837.138h-142.975v-36.113c0-59.602-48.42-108.163-108.128-108.163-59.778 0-108.093 48.561-108.093 108.163v36.113h-288.518v-36.113c0-59.602-48.491-108.163-108.163-108.163s-108.128 48.526-108.128 108.163v36.113l-144.276 1.793v-902.932l1009.372 0.211-1.090 900.927zM944.565 7.91h-865.096v576.824h865.166v-576.824h-0.070zM258.593 743.884c39.243 0 71.066 31.577 71.066 70.89v74.195c0 39.383-31.823 71.031-71.066 71.031s-70.96-31.647-70.96-71.031v-74.23c0-39.278 31.682-70.855 70.96-70.855zM368.093 507.339h113.614v-100.287h-113.614v100.287zM551.788 507.339h113.719v-100.287h-113.719v100.287zM722.155 507.339h113.614v-100.287h-113.614v100.287zM368.093 340.804h113.614v-100.216h-113.614v100.216zM551.788 340.804h113.719v-100.216h-113.719v100.216zM722.155 340.804h113.614v-100.216h-113.614v100.216zM368.093 170.963h113.614v-100.216h-113.614v100.216zM187.633 340.804h113.543v-100.216h-113.543v100.216zM187.633 170.963h113.543v-100.216h-113.543v100.216zM551.788 170.963h113.719v-100.216h-113.719v100.216zM722.155 170.963h113.614v-100.216h-113.614v100.216z" />
<glyph unicode="&#xe9a2;" glyph-name="icon" d="M776.978 910.536h-90.464l30.311-24.625c12.056-10.004 23.385-22.402 34.287-37.237 10.774-14.792 20.008-32.021 27.618-51.516 7.524-19.538 11.372-41.854 11.372-66.95 0-24.027-3.548-45.488-10.774-64.128-7.054-18.725-16.289-35.57-27.49-50.576s-24.283-28.43-38.99-40.273l-45.317-34.672c-9.32-9.234-18.426-18.768-27.575-28.815-8.978-9.876-13.552-22.53-13.552-37.793 0-15.006 5.344-27.062 15.904-35.912 10.731-8.978 20.478-16.075 29.157-21.547l52.286-37.836c14.407-12.398 27.917-24.882 40.914-37.536 12.911-12.612 24.54-26.25 34.843-40.914 10.090-14.749 18.255-30.91 23.984-48.566 5.772-17.657 8.508-37.964 8.508-60.965 0-32.064-7.781-63.316-23.556-93.542-15.733-30.311-38.99-57.544-70.028-81.614-30.953-24.112-69.301-43.393-115.046-57.844-45.873-14.45-98.587-21.675-158.482-21.675-52.671 0-98.415 5.344-137.106 16.16-38.819 10.774-71.225 25.096-97.090 43.009-25.865 17.87-45.189 38.263-57.844 61.221-12.612 22.958-18.811 47.027-18.811 72.294 0 24.326 7.781 51.816 23.556 82.64 15.733 30.739 44.548 57.844 86.488 81.186 22.231 12.398 46.001 22.402 71.396 30.311 25.309 7.824 50.277 13.852 75.158 18.255 24.882 4.318 48.438 7.396 70.755 9.277 22.231 1.796 41.512 3.206 57.416 4.147-9.876 12.27-19.153 25.309-27.703 38.862-8.337 13.51-12.569 31.038-12.569 52.628 0 11.458 1.411 20.949 4.232 28.601 2.779 7.738 5.857 15.476 9.448 23.214-7.225-0.898-14.707-1.582-22.53-2.009-7.952-0.47-15.733-0.77-23.214-0.77-38.733 0-72.85 6.028-102.52 18.341-29.542 12.099-54.937 28.088-75.671 47.754-20.649 19.752-36.254 42.325-46.514 67.848-10.474 25.438-15.605 51.26-15.605 77.467 0 31.124 7.653 62.546 22.445 94.44 15.049 31.979 37.707 60.452 68.147 85.675 41.812 32.064 85.205 52.329 130.437 60.751 45.104 8.422 87.172 12.697 126.333 12.697h296.486l-93.029-49.464zM741.921 139.372c0 16.631-2.736 31.808-8.379 45.702-5.601 13.723-13.98 27.062-25.309 39.931s-27.319 26.464-47.925 40.828c-20.649 14.407-44.035 30.739-70.37 49.122-5.43 1.838-10.56 2.864-15.134 2.864h-17.742c-3.677 0-10.603-0.299-20.906-0.684-10.303-0.47-22.659-1.496-37.109-3.035-14.407-1.625-29.798-3.805-46.343-6.498-16.417-2.779-32.15-6.327-47.198-10.945-8.422-2.736-19.324-6.969-32.962-12.655-13.809-5.601-27.361-13.852-40.871-24.497-13.552-10.645-25.224-24.283-34.929-40.615-9.961-16.374-14.792-36.126-14.792-59.383 0-24.027 5.729-45.83 17.315-65.454 11.586-19.538 28.558-36.767 50.661-51.858 21.889-14.963 48.524-26.335 79.733-33.988 31.038-7.738 65.753-11.586 104.016-11.586 69.259 0 121.288 13.381 156.045 40.23s52.2 61.007 52.2 102.52zM627.089 571.853c16.289 15.947 26.293 33.047 29.798 51.303 3.548 18.17 5.301 33.432 5.301 45.617 0 24.112-3.677 50.405-10.902 78.921-7.311 28.387-18.383 54.937-33.090 79.476-14.835 24.625-33.218 45.275-55.108 62.119-22.274 16.973-47.669 25.309-76.826 25.309-18.725 0-37.28-4.232-55.492-12.569-18.212-8.422-33.389-19.067-45.104-31.765-12.398-14.151-20.607-29.67-25.053-46.429-4.275-16.93-6.456-34.244-6.456-51.944 0-22.274 3.548-47.241 10.432-74.731 7.011-27.618 17.913-53.312 32.834-77.51 14.963-24.069 33.56-44.42 55.578-60.708 22.231-16.46 48.524-24.625 79.263-24.625 18.084 0 35.655 3.335 52.671 10.261 16.973 6.84 31.124 15.989 42.154 27.276z" />
<glyph unicode="&#xe9a6;" glyph-name="information-1" d="M562 203c0-27.614-22.386-50-50-50s-50 22.386-50 50c0 27.614 22.386 50 50 50s50-22.386 50-50zM512 960c-282.968 0-512-228.994-512-512 0-282.968 228.994-512 512-512 282.968 0 512 228.994 512 512 0 282.968-228.994 512-512 512zM512 16c-238.754 0-432 193.214-432 432 0 238.754 193.214 432 432 432 238.754 0 432-193.214 432-432 0-238.754-193.214-432-432-432zM512 703c-88.224 0-160-71.776-160-160 0-22.092 17.908-40 40-40s40 17.908 40 40c0 44.112 35.888 80 80 80s80-35.888 80-80c0-44.112-35.888-80-80-80-22.092 0-40-17.908-40-40v-100c0-22.092 17.908-40 40-40s40 17.908 40 40v65.062c68.932 17.806 120 80.52 120 154.938 0 88.224-71.776 160-160 160z" />
<glyph unicode="&#xe9a7;" glyph-name="information" d="M453.967 625.843c1.872-3.744 3.744-7.488 5.616-10.296s4.68-5.616 6.552-8.424c2.808-2.808 5.616-5.616 9.36-8.424 2.808-1.872 6.552-4.68 11.232-5.616 3.744-1.872 7.488-2.808 12.168-3.744s8.424-0.936 12.168-0.936c3.744 0 8.424 0 12.168 0.936s7.488 1.872 10.296 3.744h0.936c3.744 1.872 7.488 3.744 11.232 6.552 2.808 1.872 5.616 4.68 8.424 7.488l0.936 0.936c2.808 2.808 4.68 5.616 6.552 8.424s3.744 5.616 4.68 9.36c0 0.936 0 0.936 0.936 1.872 1.872 3.744 2.808 8.424 3.744 12.168s0.936 8.424 0.936 12.168 0 8.424-0.936 12.168-1.872 7.488-3.744 12.168c-2.808 6.552-6.552 12.168-11.232 16.848-0.936 0.936-0.936 0.936-1.872 1.872-2.808 2.808-5.616 4.68-9.36 7.488-3.744 1.872-6.552 3.744-10.296 5.616s-7.488 2.808-11.232 3.744c-4.68 0.936-8.424 0.936-12.168 0.936s-8.424 0-12.168-0.936c-3.744-0.936-7.488-1.872-11.232-3.744h-0.936c-3.744-1.872-7.488-3.744-10.296-5.616-3.744-2.808-6.552-4.68-9.36-7.488s-5.616-5.616-7.488-8.424c-1.872-2.808-3.744-6.552-5.616-10.296s-2.808-7.488-3.744-11.232c-0.936-4.68-0.936-8.424-0.936-12.168s0-8.424 0.936-12.168c0.936-7.488 2.808-11.232 3.744-14.976zM584.073 283.261h-21.528v229.324c0 13.104-10.296 24.336-24.336 24.336h-98.282c-13.104 0-24.336-10.296-24.336-24.336v-50.545c0-13.104 10.296-24.336 24.336-24.336h19.656v-155.378h-19.656c-13.104 0-24.336-10.296-24.336-24.336v-50.545c0-13.104 10.296-24.336 24.336-24.336h144.146c13.104 0 24.336 10.296 24.336 24.336v50.545c0 14.040-11.232 25.272-24.336 25.272zM512 960c-282.676 0-512-229.324-512-512s229.324-512 512-512 512 229.324 512 512-229.324 512-512 512zM512 3.393c-245.236 0-444.607 199.371-444.607 444.607s199.371 444.607 444.607 444.607 444.607-199.371 444.607-444.607-199.371-444.607-444.607-444.607z" />
<glyph unicode="&#xe9a8;" glyph-name="innovation" d="M709.349 598.373h-45.428c-2.774 8.804-6.302 17.328-10.56 25.506l32.12 32.122c4.014 4.014 6.224 9.352 6.224 15.030 0 5.68-2.21 11.018-6.224 15.032l-37.802 37.804c-8.288 8.282-21.772 8.286-30.062-0.002l-32.122-32.122c-8.178 4.258-16.704 7.788-25.506 10.56v45.43c-0.002 11.72-9.538 21.258-21.26 21.258h-53.462c-11.72 0-21.256-9.536-21.256-21.258v-45.43c-8.804-2.774-17.328-6.302-25.508-10.56l-32.124 32.124c-8.288 8.284-21.772 8.282-30.060-0.002l-37.8-37.8c-4.016-4.014-6.228-9.352-6.228-15.032 0-5.678 2.212-11.016 6.226-15.030l32.122-32.122c-4.258-8.178-7.788-16.704-10.56-25.506h-45.43c-11.72 0-21.256-9.536-21.256-21.258v-53.462c0-11.72 9.536-21.256 21.256-21.256h45.43c2.774-8.802 6.302-17.33 10.56-25.506l-32.122-32.122c-8.288-8.288-8.288-21.774 0-30.062l37.802-37.802c8.288-8.29 21.776-8.288 30.062 0l32.122 32.122c8.178-4.258 16.706-7.788 25.508-10.56v-45.43c0-11.72 9.536-21.256 21.256-21.256h53.462c11.72 0 21.258 9.536 21.258 21.256v45.43c8.8 2.772 17.328 6.302 25.506 10.56l32.122-32.122c8.29-8.29 21.776-8.288 30.064 0l37.8 37.802c4.014 4.014 6.224 9.352 6.224 15.030s-2.21 11.016-6.224 15.032l-32.122 32.122c4.258 8.178 7.788 16.704 10.56 25.506h45.43c11.72 0 21.258 9.536 21.258 21.256v53.462c0.002 11.72-9.536 21.256-21.256 21.256zM700.609 532.399h-48.118c-6.968 0-13.018-4.798-14.606-11.584-3.198-13.67-8.566-26.636-15.956-38.534-3.678-5.92-2.792-13.592 2.134-18.522l34.022-34.022-25.436-25.436-34.022 34.022c-4.928 4.928-12.6 5.816-18.524 2.136-11.9-7.39-24.866-12.758-38.532-15.958-6.786-1.586-11.584-7.636-11.584-14.606v-48.12h-35.97v48.12c0 6.968-4.798 13.018-11.584 14.606-13.666 3.196-26.632 8.564-38.534 15.958-5.918 3.672-13.592 2.792-18.522-2.136l-34.022-34.022-25.436 25.436 34.022 34.022c4.928 4.928 5.812 12.6 2.136 18.522-7.39 11.9-12.758 24.866-15.956 38.534-1.586 6.786-7.638 11.584-14.606 11.584h-48.118v35.97h48.118c6.968 0 13.018 4.798 14.606 11.584 3.198 13.668 8.566 26.634 15.956 38.534 3.676 5.92 2.792 13.592-2.136 18.522l-34.022 34.022 25.436 25.436 34.022-34.022c4.924-4.928 12.6-5.814 18.522-2.136 11.898 7.39 24.864 12.758 38.534 15.956 6.786 1.586 11.584 7.636 11.584 14.606v48.12h35.97v-48.12c0-6.968 4.798-13.018 11.584-14.606 13.668-3.198 26.632-8.566 38.534-15.956 5.916-3.674 13.592-2.788 18.522 2.136l34.022 34.022 25.436-25.436-34.022-34.022c-4.928-4.928-5.812-12.6-2.134-18.522 7.388-11.896 12.756-24.862 15.956-38.534 1.588-6.786 7.636-11.584 14.606-11.584h48.118v-35.97zM511.999 630.745c-44.312 0-80.36-36.050-80.36-80.36s36.050-80.36 80.36-80.36 80.36 36.050 80.36 80.36c0 44.31-36.048 80.36-80.36 80.36zM511.999 500.025c-27.768 0-50.36 22.592-50.36 50.36s22.592 50.36 50.36 50.36c27.768 0 50.36-22.592 50.36-50.36s-22.592-50.36-50.36-50.36zM167.148 565.385h-49.764c-8.284 0-15-6.716-15-15s6.716-15 15-15h49.764c8.284 0 15 6.716 15 15s-6.716 15-15 15zM906.616 565.385h-49.764c-8.286 0-15-6.716-15-15s6.714-15 15-15h49.764c8.286 0 15 6.716 15 15s-6.716 15-15 15zM278.757 317.143c-5.856 5.858-15.354 5.858-21.214 0l-35.188-35.188c-5.858-5.858-5.858-15.356 0-21.214s15.356-5.858 21.214 0l35.188 35.188c5.858 5.858 5.858 15.356 0 21.214zM801.642 840.024c-5.86 5.858-15.356 5.858-21.216 0l-35.188-35.188c-5.858-5.858-5.858-15.356 0-21.214 5.86-5.858 15.356-5.856 21.216 0l35.188 35.188c5.858 5.86 5.858 15.358 0 21.214zM512.001 960c-8.286 0-15-6.716-15-15v-49.764c0-8.284 6.714-15 15-15s15 6.716 15 15v49.764c0 8.284-6.714 15-15 15zM801.642 281.955l-35.188 35.188c-5.86 5.858-15.356 5.858-21.216 0-5.858-5.858-5.858-15.358 0-21.214l35.188-35.188c5.86-5.858 15.356-5.858 21.216 0 5.858 5.858 5.858 15.356 0 21.214zM278.757 804.836l-35.188 35.188c-5.858 5.858-15.356 5.858-21.214 0s-5.858-15.356 0-21.214l35.188-35.188c5.858-5.858 15.356-5.858 21.214 0 5.858 5.86 5.858 15.358 0 21.214zM811.256 587.131c-16.142 137.75-125.336 246.954-262.439 263.665-8.21 1.010-15.704-4.852-16.708-13.074-1.002-8.224 4.852-15.704 13.076-16.708 124.514-15.176 221.674-112.79 236.272-237.376 0.894-7.634 7.376-13.254 14.878-13.254 0.584 0 1.172 0.034 1.766 0.102 8.232 0.962 14.12 8.414 13.156 16.644zM797.924 530.265c-8.232 1.048-15.726-4.778-16.766-12.998-10.226-80.776-55.818-152.050-125.086-195.54-29.862-18.75-47.688-50.838-47.688-85.834v-61.734h-192.766v63.1c0 33.888-17.71 65.904-46.216 83.55-80.612 49.9-128.74 136.214-128.742 230.892 0 136.704 102.396 252.476 238.182 269.295 8.222 1.018 14.060 8.51 13.042 16.732-1.018 8.22-8.506 14.074-16.732 13.042-150.030-18.586-264.499-147.606-264.497-299.069 0-52.266 13.594-103.762 39.316-148.922 24.934-43.78 60.772-80.944 103.636-107.478 19.742-12.22 32.004-34.46 32.004-58.040v-65.286c-15.252-5.3-26.25-19.784-26.25-36.818v-21.384c0-9.054 3.128-17.376 8.322-24.002-5.196-6.626-8.322-14.946-8.322-24.002v-21.382c0-21.506 17.498-39.002 39.002-39.002h47.16v-33.91c0-19.562 15.914-35.476 35.474-35.476h61.994c19.562 0 35.474 15.914 35.474 35.476v33.91h47.16c21.506 0 39.002 17.498 39.002 39.002v21.382c0 9.054-3.128 17.376-8.324 24.002 5.196 6.626 8.324 14.946 8.324 24.002v21.384c0 17.036-10.996 31.518-26.25 36.818v63.92c0 24.61 12.574 47.198 33.64 60.424 76.908 48.288 127.536 127.448 138.894 217.18 1.050 8.22-4.768 15.726-12.986 16.766zM548.469-28.522c0-2.966-2.506-5.474-5.472-5.474h-61.994c-2.966 0-5.472 2.506-5.472 5.474v33.91h72.938v-33.91zM634.633 44.39c0-4.878-4.122-9-9-9-26.48 0-202.276 0-227.264 0-4.878 0-9 4.122-9 9v21.382c0 4.878 4.122 9 9 9h227.264c4.878 0 9-4.122 9-9v-21.382zM634.633 113.776c0-4.878-4.122-9-9-9h-227.264c-4.878 0-9 4.122-9 9v21.384c0 4.878 4.122 9 9 9h227.264c4.878 0 9-4.122 9-9v-21.384z" />
<glyph unicode="&#xe9a9;" glyph-name="instagram-1" d="M512 960c-282.767 0-512-229.233-512-512s229.233-512 512-512 512 229.233 512 512c-0.317 282.633-229.367 511.683-512 512zM512-29.867c-263.917 0-477.867 213.95-477.867 477.867s213.95 477.867 477.867 477.867 477.867-213.95 477.867-477.867c-0.3-263.792-214.075-477.567-477.867-477.867zM733.867 755.2h-443.733c-47.108-0.058-85.275-38.225-85.333-85.333v-443.733c0.058-47.108 38.225-85.275 85.333-85.333h443.733c47.108 0.058 85.275 38.225 85.333 85.333v443.733c-0.058 47.108-38.225 85.275-85.333 85.333zM785.067 226.133c0-28.275-22.925-51.2-51.2-51.2h-443.733c-28.275 0-51.2 22.925-51.2 51.2v443.733c0 28.275 22.925 51.2 51.2 51.2h443.733c28.275 0 51.2-22.925 51.2-51.2zM512 618.667c-94.258 0-170.667-76.408-170.667-170.667s76.408-170.667 170.667-170.667 170.667 76.408 170.667 170.667c-0.1 94.217-76.45 170.567-170.667 170.667zM512 311.467c-75.408 0-136.533 61.125-136.533 136.533s61.125 136.533 136.533 136.533 136.533-61.125 136.533-136.533c-0.083-75.367-61.167-136.45-136.533-136.533zM699.733 686.933c-28.275 0-51.2-22.925-51.2-51.2s22.925-51.2 51.2-51.2 51.2 22.925 51.2 51.2-22.925 51.2-51.2 51.2zM699.733 618.667c-9.425 0-17.067 7.642-17.067 17.067s7.642 17.067 17.067 17.067 17.067-7.642 17.067-17.067-7.642-17.067-17.067-17.067z" />
<glyph unicode="&#xe9ad;" glyph-name="keyboard-right-arrow-button" d="M315.733 960l-119.467-119.467 392.533-392.533-392.533-392.533 119.467-119.467 512 512z" />
<glyph unicode="&#xe9b0;" glyph-name="left-arrow-1" d="M979.671 492.329h-828.336l197.653 197.666c17.316 17.305 17.316 45.378 0 62.681-17.316 17.316-45.388 17.316-62.678 0l-273.323-273.328c-17.316-17.305-17.316-45.381 0-62.681l273.323-273.341c8.655-8.66 19.999-12.984 31.339-12.984s22.684 4.324 31.339 12.984c17.316 17.305 17.316 45.378 0 62.678l-197.653 197.676h828.336c24.478 0 44.329 19.847 44.329 44.326s-19.847 44.323-44.329 44.323z" />
<glyph unicode="&#xe9b1;" glyph-name="left-arrow" d="M413.363 447.784l383.076 383.093c10.548 10.523 16.351 24.593 16.351 39.595 0 15.010-5.803 29.072-16.351 39.611l-33.567 33.551c-10.531 10.556-24.609 16.367-39.611 16.367s-29.063-5.811-39.603-16.367l-456.113-456.105c-10.581-10.573-16.376-24.701-16.334-39.72-0.042-15.085 5.744-29.196 16.334-39.778l455.688-455.663c10.54-10.556 24.601-16.367 39.611-16.367 15.002 0 29.063 5.811 39.611 16.367l33.559 33.551c21.837 21.837 21.837 57.386 0 79.214l-382.651 382.651z" />
<glyph unicode="&#xe9bb;" glyph-name="loupe-1" d="M671.241 960c-194.511 0-352.759-158.246-352.759-352.759 0-80.035 26.81-153.916 71.894-213.173l-71.461-71.461c-0.453-0.453-0.867-0.931-1.258-1.422-5.85 1.219-11.861 1.858-17.974 1.858-23.333 0-45.273-9.088-61.778-25.593l-212.317-212.317c-16.501-16.497-25.587-38.434-25.587-61.769s9.085-45.275 25.584-61.767c16.506-16.506 38.445-25.593 61.778-25.593s45.273 9.088 61.778 25.593l212.317 212.317c16.501 16.495 25.587 38.432 25.587 61.769 0 6.115-0.639 12.129-1.858 17.979 0.491 0.389 0.966 0.803 1.42 1.256l71.459 71.459c59.259-45.087 133.14-71.894 213.175-71.894 194.511 0 352.759 158.246 352.759 352.759s-158.249 352.759-352.759 352.759zM125.68-14.948c-10.238-10.238-23.844-15.875-38.317-15.875s-28.079 5.638-38.319 15.877c-10.233 10.229-15.869 23.833-15.869 38.308s5.635 28.079 15.871 38.31l191.746 191.746 76.627-76.627-191.74-191.74zM340.761 200.366l-76.364 76.364c10.118 8.705 22.687 13.106 35.285 13.106 13.876 0 27.756-5.284 38.319-15.849 10.233-10.229 15.869-23.833 15.869-38.308 0-13.106-4.636-25.492-13.108-35.314zM370.961 286.185c-2.826 3.972-5.985 7.747-9.501 11.262-3.521 3.519-7.301 6.679-11.275 9.508l61.575 61.575c6.635-7.208 13.566-14.139 20.774-20.774l-61.573-61.57zM671.241 287.656c-176.221 0-319.585 143.364-319.585 319.585s143.364 319.585 319.585 319.585 319.585-143.364 319.585-319.585-143.364-319.585-319.585-319.585zM671.241 889.227c-155.488 0-281.986-126.498-281.986-281.986s126.498-281.986 281.986-281.986 281.986 126.498 281.986 281.986-126.498 281.986-281.986 281.986zM671.241 358.429c-137.194 0-248.812 111.616-248.812 248.812s111.618 248.812 248.812 248.812 248.812-111.616 248.812-248.812-111.618-248.812-248.812-248.812zM786.421 784.31c-7.674 5.003-17.95 2.838-22.953-4.839-5.003-7.674-2.835-17.952 4.839-22.953 50.7-33.042 80.969-88.847 80.969-149.278 0-41.285-14.451-81.522-40.692-113.294-5.834-7.062-4.837-17.519 2.227-23.353 3.092-2.554 6.834-3.797 10.554-3.797 4.777 0 9.519 2.055 12.799 6.025 31.138 37.702 48.287 85.441 48.287 134.418 0.002 71.689-35.897 137.881-96.030 177.072zM709.624 814.971c-12.58 2.311-25.494 3.483-38.383 3.483-9.163 0-16.587-7.427-16.587-16.587s7.425-16.587 16.587-16.587c10.886 0 21.783-0.989 32.39-2.937 1.015-0.186 2.021-0.276 3.017-0.276 7.849 0 14.825 5.598 16.295 13.593 1.654 9.010-4.308 17.656-13.319 19.312z" />
<glyph unicode="&#xe9bc;" glyph-name="loupe" d="M620 580c-11.040 0-20-8.96-20-20s8.96-20 20-20c11.040 0 20 8.96 20 20s-8.96 20-20 20zM1000.562 72.562l-266.96 266.96c43.49 65.508 66.398 141.368 66.398 220.478 0 220.56-179.44 400-400 400s-400-179.44-400-400 179.44-400 400-400c79.112 0 154.972 22.91 220.478 66.396l73.79-73.79c0.010-0.010 0.020-0.020 0.032-0.032l193.136-193.136c15.116-15.114 35.202-23.438 56.564-23.438s41.448 8.324 56.556 23.432c15.118 15.106 23.444 35.194 23.444 56.568s-8.326 41.462-23.438 56.562zM611.072 268.546c0-0.002-0.002-0.002-0.004-0.004-61.734-44.84-134.718-68.542-211.068-68.542-198.504 0-360 161.496-360 360s161.496 360 360 360 360-161.496 360-360c0-76.35-23.702-149.334-68.544-211.070-22.434-30.906-49.478-57.952-80.384-80.384zM653.032 250.414c20.7 16.934 39.622 35.856 56.554 56.554l56.742-56.742c-17.256-20.366-36.188-39.3-56.554-56.554l-56.742 56.742zM972.278-12.278c-7.56-7.56-17.602-11.722-28.278-11.722s-20.718 4.162-28.278 11.722l-177.59 177.59c20.254 17.382 39.174 36.3 56.554 56.554l177.596-177.596c7.556-7.548 11.718-17.586 11.718-28.27s-4.162-20.722-11.722-28.278zM400 880c-176.45 0-320-143.55-320-320s143.55-320 320-320 320 143.55 320 320-143.55 320-320 320zM400 280c-154.392 0-280 125.608-280 280s125.608 280 280 280 280-125.608 280-280-125.608-280-280-280zM624.13 645.854c-17.222 44.824-47.208 83.148-86.72 110.826-40.452 28.34-87.968 43.32-137.41 43.32-11.044 0-20-8.956-20-20s8.956-20 20-20c82.198 0 157.262-51.636 186.792-128.494 3.056-7.952 10.634-12.832 18.674-12.832 2.384 0 4.81 0.43 7.168 1.336 10.31 3.962 15.458 15.532 11.496 25.844z" />
<glyph unicode="&#xe9bf;" glyph-name="map-location" d="M966.902 305.628l42.817 337.622-307.167 116.556-97.265-46.445c-3.002-14.854-7.553-29.31-13.506-43.219l73.631 35.158-30.4-327.217 1.701-17.53-224.349-33.84-18.413-36.315 246.001 37.090 28.36-290.22 33.013 3.252-28.536 291.896 2.875 0.451 257.208-32.588 0.624 5.027 38.867-326.409-267.862 61.826-348.562-66.404-2.903 0.55 31.333 297.727-0.207 1.811-1.282 11.154-42.948 84.785 6.059-53.636-7.661-1.151-248.468 38.492 1.475 12.231-38.071 300.162 173.846-73.399-14.511 28.606c-4.695 6.085-8.947 12.463-12.98 18.952l-186.53 78.775 44.82-353.221-0.844-7.026-0.624 0.099-5.097-32.763 1.832-0.25-38.291-321.659 341.098-63.954 347.895 66.252 307.027-70.854-44.006 369.628zM675.294 366.353l-5.727-0.838-1.252 12.47 31.963 343.979 3.776 1.807 269.461-102.242-36.59-288.289-261.631 33.112zM320.333-19.006l-268.861 50.42 34.515 289.672 252.297-39.093 11.461 1.724 1.282-11.253-30.694-291.471zM387.204 277.066l-4.301 8.48-0.349 3.127 11.412 1.724-6.762-13.331zM238.393 649.996l146.505-289.12 144.91 286.025c28.462 33.188 45.77 76.2 45.77 123.275-0.002 104.67-85.164 189.824-189.838 189.824-104.668 0-189.796-85.153-189.796-189.824 0-45.576 16.157-87.411 43.011-120.18h-0.563zM385.753 886.845c64.32 0 116.672-52.346 116.672-116.668 0-64.318-52.352-116.672-116.672-116.672s-116.668 52.354-116.668 116.672c0.002 64.323 52.335 116.668 116.668 116.668z" />
<glyph unicode="&#xe9ce;" glyph-name="mobile-phone" d="M674.658-64c0 0 92.947 0 92.947 93.087v837.826c-0.001 93.087-92.947 93.087-92.947 93.087h-325.317c0 0-92.947 0-92.947-93.087v-837.826c0.001-93.087 92.947-93.087 92.947-93.087h325.317zM512-25.241c-25.653 0-46.473 20.821-46.473 46.473 0 25.654 20.82 46.473 46.473 46.473s46.473-20.82 46.473-46.473-20.819-46.473-46.473-46.473zM442.289 903.256c0 5.763 2.742 10.271 6.18 10.271h127.059c3.393 0 6.181-4.602 6.181-10.271v-2.742c0-5.763-2.789-10.271-6.181-10.271h-127.059c-3.393 0-6.18 4.602-6.18 10.271v2.742zM302.869 843.816h418.263v-743.578h-418.263v743.578z" />
<glyph unicode="&#xe9d5;" glyph-name="multiply-1" d="M210.3 146.3c16.662-16.662 43.678-16.662 60.34 0l241.36 241.36 241.36-241.36c16.662-16.662 43.678-16.662 60.34 0s16.662 43.678 0 60.34l-241.36 241.36 241.36 241.36c16.662 16.662 16.662 43.678 0 60.34s-43.678 16.662-60.34 0l-241.36-241.36-241.36 241.36c-16.662 16.662-43.678 16.662-60.34 0s-16.662-43.678 0-60.34l241.36-241.36-241.36-241.36c-16.662-16.664-16.662-43.678 0-60.34zM981.334 960h-938.668c-23.564 0-42.666-19.102-42.666-42.666v-938.666c0-23.566 19.102-42.668 42.666-42.668h938.666c23.564 0 42.666 19.102 42.666 42.666v938.668c0.002 23.564-19.1 42.666-42.664 42.666zM938.666 21.334h-853.332v853.332h853.334v-853.332z" />
<glyph unicode="&#xe9d6;" glyph-name="multiply" d="M986.594 640.614c-24.954 61.756-62.462 119.656-112.398 169.584-49.93 49.938-107.834 87.446-169.59 112.4-61.764 24.962-127.384 37.402-192.974 37.402-65.494 0-130.99-12.498-192.622-37.488-61.626-24.982-119.386-62.488-169.206-112.316-49.83-49.822-87.336-107.584-112.316-169.214-24.99-61.63-37.488-127.126-37.488-192.626 0-65.588 12.444-131.204 37.402-192.97 24.954-61.754 62.462-119.656 112.4-169.584 49.928-49.934 107.828-87.444 169.584-112.398 61.764-24.96 127.38-37.402 192.968-37.406 65.496 0 130.994 12.498 192.63 37.486 61.628 24.98 119.39 62.484 169.214 112.316 49.83 49.824 87.336 107.586 112.316 169.216 24.988 61.634 37.486 127.13 37.488 192.63-0.002 65.588-12.446 131.204-37.408 192.968zM923.222 280.68c-21.642-53.366-54.036-103.296-97.318-146.584-43.286-43.28-93.216-75.674-146.582-97.318-53.358-21.636-110.156-32.482-166.968-32.482-56.954 0-113.894 10.812-167.376 32.428-53.488 21.626-103.52 54.016-146.882 97.37-43.356 43.366-75.748 93.396-97.37 146.886-21.616 53.482-32.428 110.424-32.426 167.378-0.002 56.81 10.846 113.604 32.48 166.964 21.642 53.366 54.036 103.296 97.318 146.582 43.286 43.28 93.214 75.674 146.578 97.318 53.356 21.636 110.15 32.484 166.96 32.484 56.956 0 113.9-10.81 167.382-32.426 53.49-21.622 103.524-54.014 146.89-97.372 43.356-43.364 75.746-93.394 97.37-146.882 21.616-53.482 32.428-110.422 32.428-167.376-0.002-56.814-10.848-113.61-32.484-166.97zM559.254 447.998l165.386 165.386c13.050 13.050 13.050 34.204 0 47.254-13.048 13.048-34.204 13.048-47.254 0l-165.386-165.388-165.386 165.386c-13.050 13.048-34.204 13.048-47.254 0-13.048-13.048-13.048-34.204 0-47.254l165.386-165.386-165.386-165.386c-13.048-13.046-13.048-34.204 0-47.254 13.050-13.048 34.204-13.048 47.254 0l165.386 165.388 165.386-165.386c13.050-13.048 34.204-13.048 47.254 0s13.050 34.204 0 47.254l-165.386 165.386z" />
<glyph unicode="&#xe9d8;" glyph-name="mute-speaker-outlined-symbol-with-a-slash-on-it" d="M152.645 265.878h51.913l84.367 84.366h-94.081v220.135h171.812c11.218 0 21.921 4.514 29.925 12.447l195.17 196.504v-126.294l84.367 84.367v144.215c0 17.066-10.398 32.557-26.232 38.987-15.662 6.566-33.753 2.94-45.963-9.235l-254.912-256.624h-196.367c-23.426 0-42.166-18.878-42.166-42.166v-304.501c-0.002-23.325 18.774-42.201 42.166-42.201zM591.751 141.089l-130.673 130.809-59.642-59.643 202.591-203c8.070-8.072 18.878-12.347 29.925-12.347 5.403 0 10.841 0.991 16.072 3.216 15.73 6.497 26.128 21.92 26.128 38.985v447.792l-84.367-84.369v-261.443h-0.033zM1010.405 946.458c-9.029 9.062-20.929 13.508-32.796 13.508s-23.7-4.446-32.798-13.508l-931.218-931.256c-18.125-18.125-18.125-47.465 0-65.59 9.062-9.062 20.896-13.578 32.762-13.578 11.9 0 23.733 4.55 32.796 13.578l931.253 931.288c18.126 18.023 18.126 47.432 0 65.558z" />
<glyph unicode="&#xe9db;" glyph-name="network" d="M912.291 960c-61.608 0-111.709-50.102-111.709-111.709 0-19.27 4.897-37.404 13.517-53.248l-182.998-182.998c-25.228 19.642-56.804 31.446-91.173 31.446s-65.946-11.804-91.192-31.427l-142.783 142.783c6.554 11.078 10.557 23.813 10.557 37.59 0 41.072-33.401 74.473-74.473 74.473s-74.473-33.401-74.473-74.473 33.401-74.473 74.473-74.473c13.777 0 26.512 4.003 37.59 10.557l142.783-142.783c-19.624-25.246-31.427-56.823-31.427-91.192s11.804-65.946 31.427-91.173l-235.781-235.799c-19.847 18.004-46.080 29.082-74.92 29.082-61.608 0-111.709-50.102-111.709-111.709s50.102-111.709 111.709-111.709 111.709 50.102 111.709 111.709c0 19.27-4.897 37.404-13.517 53.248l238.853 238.853c20.592-16.012 45.428-26.736 72.574-30.143v-189.161c-52.745-8.899-93.091-54.775-93.091-110.033 0-61.608 50.102-111.709 111.709-111.709s111.709 50.102 111.709 111.709c0 55.24-40.346 101.115-93.091 110.033v189.161c27.145 3.407 51.982 14.131 72.574 30.143l142.783-142.783c-6.572-11.096-10.575-23.831-10.575-37.609 0-41.072 33.401-74.473 74.473-74.473s74.473 33.401 74.473 74.473-33.401 74.473-74.473 74.473c-13.777 0-26.512-4.003-37.59-10.557l-142.783 142.783c19.624 25.246 31.427 56.823 31.427 91.192s-11.804 65.946-31.427 91.173l179.945 179.945c19.828-18.004 46.061-29.082 74.901-29.082 61.608 0 111.709 50.102 111.709 111.709s-50.102 111.709-111.709 111.709z" />
<glyph unicode="&#xe9dc;" glyph-name="new-email-back-closed-envelope-symbol" d="M922.649 854.013h-821.315c-55.867 0-101.334-45.554-101.334-101.542v-609.011c0-56.005 45.468-101.49 101.334-101.49h821.367c55.867 0 101.317 45.485 101.317 101.49v609.011c-0.052 55.988-45.52 101.542-101.369 101.542zM981.275 143.512c0-32.378-26.353-58.8-58.662-58.8h-821.28c-32.326 0-58.662 26.406-58.662 58.8v608.959c0 32.378 26.353 58.783 58.662 58.783h821.367c32.291 0 58.662-26.406 58.662-58.783l-0.087-608.959zM660.208 455.517l210.133 210.463c8.333 8.316 8.333 21.874 0 30.208-8.316 8.316-21.822 8.316-30.103 0l-328.255-328.724-321.797 322.37c-8.316 8.316-21.822 8.316-30.155 0-8.316-8.35-8.316-21.874 0-30.225l209.248-209.526-205.845-206.21c-8.316-8.316-8.316-21.874 0-30.138 4.167-4.167 9.618-6.267 15.086-6.267s10.92 2.101 15.086 6.267l205.793 206.123 97.515-97.688c4.167-4.149 9.618-6.25 15.086-6.25s10.92 2.101 15.086 6.25l102.983 103.122 211.227-211.557c4.167-4.167 9.653-6.267 15.086-6.267s10.902 2.101 15.086 6.267c8.316 8.316 8.316 21.874 0 30.138l-211.262 211.644z" />
<glyph unicode="&#xe9dd;" glyph-name="newspaper-1" d="M529.067 686.933h-238.933v-238.933h238.933v238.933zM494.933 482.133h-170.667v170.667h170.667v-170.667zM887.467 686.933h-273.067c-9.438 0-17.067-7.629-17.067-17.067s7.629-17.067 17.067-17.067h273.067c9.438 0 17.067 7.629 17.067 17.067s-7.629 17.067-17.067 17.067zM887.467 584.533h-273.067c-9.438 0-17.067-7.629-17.067-17.067s7.629-17.067 17.067-17.067h273.067c9.438 0 17.067 7.629 17.067 17.067s-7.629 17.067-17.067 17.067zM887.467 482.133h-273.067c-9.438 0-17.067-7.629-17.067-17.067s7.629-17.067 17.067-17.067h273.067c9.438 0 17.067 7.629 17.067 17.067s-7.629 17.067-17.067 17.067zM887.467 379.733h-563.2c-9.438 0-17.067-7.629-17.067-17.067s7.629-17.067 17.067-17.067h563.2c9.438 0 17.067 7.629 17.067 17.067s-7.629 17.067-17.067 17.067zM580.267 277.333h-256c-9.438 0-17.067-7.629-17.067-17.067s7.629-17.067 17.067-17.067h256c9.438 0 17.067 7.629 17.067 17.067s-7.629 17.067-17.067 17.067zM580.267 174.933h-256c-9.438 0-17.067-7.629-17.067-17.067s7.629-17.067 17.067-17.067h256c9.438 0 17.067 7.629 17.067 17.067s-7.629 17.067-17.067 17.067zM580.267 72.533h-256c-9.438 0-17.067-7.629-17.067-17.067s7.629-17.067 17.067-17.067h256c9.438 0 17.067 7.629 17.067 17.067s-7.629 17.067-17.067 17.067zM665.6 38.4h238.933v238.933h-238.933v-238.933zM699.733 243.2h170.667v-170.667h-170.667v170.667zM1006.933 738.133c0 0.29-0.154 0.529-0.171 0.819v221.047h-819.029v-512h-170.667v-409.6c0-56.474 45.926-102.4 102.4-102.4h785.067c56.371 0 102.229 45.875 102.229 102.229v699.085c0.017 0.29 0.171 0.529 0.171 0.819zM972.629 925.867v-170.667h-750.763v170.667h750.763zM51.2 38.4v375.467h136.533v-375.467c0-37.649-30.618-68.267-68.267-68.267s-68.267 30.618-68.267 68.267zM904.533-29.867h-708.796c0.273 0.307 0.461 0.666 0.717 0.973 3.482 3.977 6.656 8.226 9.489 12.715 0.461 0.717 0.887 1.434 1.331 2.185 2.765 4.608 5.205 9.421 7.219 14.473 0.273 0.7 0.512 1.399 0.768 2.099 1.963 5.222 3.567 10.615 4.659 16.196 0.102 0.512 0.137 1.041 0.239 1.536 1.058 5.871 1.707 11.913 1.707 18.091v682.667h750.763v-682.837c0-37.547-30.549-68.096-68.096-68.096zM802.133 891.733h-409.6v-102.4h409.6v102.4zM768 823.467h-341.333v34.133h341.333v-34.133z" />
<glyph unicode="&#xe9de;" glyph-name="newspaper" d="M1007.899 956.626h-736.608c-8.898 0-16.099-7.216-16.099-16.107v-64.345h-119.449c-4.634 0-9.062-2.006-12.116-5.503-3.054-3.508-4.436-8.144-3.838-12.749l6.257-46.226h-109.944c-5.050 0-9.841-2.383-12.885-6.43-3.041-4.046-3.991-9.284-2.568-14.175l245.049-840.097c2.047-7.047 8.468-11.616 15.475-11.616 1.489 0 746.719 0 746.719 0 8.889 0 16.109 7.183 16.109 16.114v985.018c0 8.9-7.222 16.116-16.101 16.116zM255.193 843.958v-746.134l-100.996 746.134h100.996zM130.398 779.491l80.395-593.821-173.225 593.821h92.83zM991.794-28.41h-704.404v952.816h704.419v-952.816h-0.015zM569.139 797.204h-256.050v72.476h256.041l0.009-72.476zM967.699 797.204h-256.047v72.476h256.037l0.009-72.476zM585.666 833.437c0 29.778 24.149 53.946 53.924 53.946 29.79 0 53.958-24.159 53.958-53.946 0-29.795-24.179-53.946-53.958-53.946-29.784 0-53.924 24.159-53.924 53.946zM929.735 440.749h-218.083v244.792h218.075l0.008-244.792zM607.381 649.564h-268.116v26.851h268.116v-26.851zM339.266 573.358h268.116v-26.852h-268.116v26.852zM342.284 467.957h268.119v-26.849h-268.119v26.849zM339.266 361.782h590.47v-26.839h-590.47v26.839zM339.266 255.777h590.47v-26.839h-590.47v26.839zM339.266 151.112h590.47v-26.858h-590.47v26.858z" />
<glyph unicode="&#xe9df;" glyph-name="notebook" d="M86 72.531c0.055-40.531 28.57-75.445 68.266-83.609v-1.719c0.031-28.266 22.938-51.172 51.203-51.203h682.664c28.266 0.031 51.172 22.938 51.203 51.203v921.594c-0.031 28.266-22.938 51.172-51.203 51.203h-682.664c-28.266-0.031-51.172-22.938-51.203-51.203v-1.719c-39.727-8.117-68.258-43.062-68.258-83.609s28.531-75.5 68.258-83.609v-20.516c-39.727-8.117-68.258-43.063-68.258-83.609s28.531-75.5 68.258-83.609v-20.516c-39.727-8.117-68.258-43.063-68.258-83.609s28.531-75.492 68.258-83.609v-20.516c-39.727-8.109-68.258-43.063-68.258-83.609s28.531-75.492 68.258-83.609v-20.516c-39.695-8.156-68.211-43.078-68.266-83.609zM120.133 72.531c0.070 21.625 13.734 40.875 34.133 48.055v-96.109c-20.398 7.188-34.063 26.43-34.133 48.055zM205.469 925.867h682.664c9.422-0.008 17.063-7.648 17.070-17.070v-921.594c-0.008-9.422-7.648-17.063-17.070-17.070h-682.664c-9.422 0.008-17.063 7.648-17.070 17.070v133.383c20.398-7.18 34.070-26.43 34.133-48.055 0-9.422 7.641-17.063 17.070-17.063 9.422 0 17.063 7.641 17.063 17.063-0.055 40.531-28.563 75.453-68.266 83.609v152.18c20.398-7.18 34.070-26.43 34.133-48.055 0-9.422 7.641-17.063 17.070-17.063 9.422 0 17.063 7.641 17.063 17.063-0.055 40.531-28.563 75.453-68.266 83.609v152.18c20.398-7.188 34.070-26.43 34.133-48.055 0-9.422 7.641-17.070 17.070-17.070 9.422 0 17.063 7.648 17.063 17.070-0.055 40.531-28.563 75.445-68.266 83.609v152.18c20.398-7.188 34.070-26.43 34.133-48.055 0-9.43 7.641-17.070 17.070-17.070 9.422 0 17.063 7.641 17.063 17.070-0.055 40.531-28.563 75.445-68.266 83.609v152.18c20.398-7.188 34.070-26.43 34.133-48.055 0-9.43 7.641-17.070 17.070-17.070 9.422 0 17.063 7.641 17.063 17.070-0.055 40.531-28.563 75.445-68.266 83.609v1.719c0.008 9.422 7.648 17.063 17.070 17.070zM120.133 823.469c0.070 21.625 13.734 40.867 34.133 48.055v-96.109c-20.398 7.18-34.063 26.43-34.133 48.055zM120.133 635.734c0.070 21.625 13.734 40.867 34.133 48.055v-96.109c-20.398 7.18-34.063 26.43-34.133 48.055zM120.133 448c0.070 21.625 13.734 40.867 34.133 48.055v-96.109c-20.398 7.188-34.063 26.43-34.133 48.055zM120.133 260.266c0.070 21.625 13.734 40.875 34.133 48.055v-96.109c-20.398 7.188-34.063 26.43-34.133 48.055zM359.070 396.797h443.727c18.844 0.023 34.117 15.297 34.133 34.133v341.336c-0.016 18.844-15.289 34.109-34.133 34.133h-443.727c-18.844-0.023-34.117-15.289-34.141-34.133v-341.336c0.023-18.836 15.297-34.109 34.141-34.133zM359.070 772.266h443.727l0.031-341.336h-443.758zM666.266 721.070c-28.266-0.031-51.164-22.938-51.195-51.203 0.039-7.617 1.797-15.125 5.141-21.961-4.969-4.844-6.5-12.211-3.883-18.633 2.617-6.43 8.867-10.617 15.805-10.609h68.266c6.938-0.008 13.188 4.18 15.805 10.609 2.625 6.422 1.086 13.789-3.883 18.633 3.344 6.836 5.109 14.344 5.148 21.961-0.031 28.266-22.938 51.172-51.203 51.203zM666.266 686.93c9.43 0 17.070-7.641 17.070-17.063 0-9.43-7.641-17.070-17.070-17.070-9.422 0-17.063 7.641-17.063 17.070 0.008 9.422 7.641 17.055 17.063 17.063zM529.734 618.664c6.938-0.008 13.188 4.18 15.805 10.609 2.617 6.422 1.086 13.789-3.883 18.633 3.344 6.836 5.102 14.344 5.141 21.961 0 28.273-22.922 51.203-51.195 51.203-28.281 0-51.203-22.93-51.203-51.203 0.039-7.617 1.805-15.125 5.148-21.961-4.969-4.844-6.508-12.211-3.891-18.633 2.625-6.43 8.875-10.617 15.813-10.609zM495.602 686.93c9.422 0 17.063-7.641 17.063-17.063 0-9.43-7.641-17.070-17.063-17.070-9.43 0-17.070 7.641-17.070 17.070 0.008 9.422 7.648 17.055 17.070 17.063zM649.203 584.531h-136.539c-9.422 0-17.063-7.641-17.063-17.063 0-47.133 38.203-85.336 85.328-85.336 47.133 0 85.336 38.203 85.336 85.336 0 4.523-1.797 8.867-5 12.063-3.195 3.203-7.539 5-12.063 5zM580.93 516.266c-21.688 0.023-41.016 13.695-48.273 34.133h96.555c-7.258-20.438-26.586-34.109-48.281-34.133zM307.867 4.266h17.063c9.43 0 17.070 7.641 17.070 17.070 0 9.422-7.641 17.063-17.070 17.063h-17.063c-9.43 0-17.070-7.641-17.070-17.063 0-9.43 7.641-17.070 17.070-17.070zM734.531 38.398h-341.328c-9.43 0-17.070-7.641-17.070-17.063 0-9.43 7.641-17.070 17.070-17.070h341.328c9.43 0 17.070 7.641 17.070 17.070 0 9.422-7.641 17.063-17.070 17.063z" />
<glyph unicode="&#xe9e3;" glyph-name="password" d="M780 268c0-22.091-17.909-40-40-40s-40 17.909-40 40c0 22.091 17.909 40 40 40s40-17.909 40-40zM920 236c22.092 0 40 17.908 40 40v148c0 88.224-71.776 160-160 160h-48.074v141.068c0 129.542-107.664 234.932-240 234.932s-240-105.39-240-234.932v-141.068h-47.926c-88.224 0-160-71.776-160-160v-328c0-88.224 71.776-160 160-160h576c88.224 0 160 71.776 160 160 0 22.092-17.908 40-40 40s-40-17.908-40-40c0-44.112-35.888-80-80-80h-576c-44.112 0-80 35.888-80 80v328c0 44.112 35.888 80 80 80h576c44.112 0 80-35.888 80-80v-148c0-22.092 17.908-40 40-40zM671.926 584h-320v141.068c0 85.43 71.776 154.932 160 154.932s160-69.502 160-154.932v-141.068zM478 268c0-22.091-17.909-40-40-40s-40 17.909-40 40c0 22.091 17.909 40 40 40s40-17.909 40-40zM328 268c0-22.091-17.909-40-40-40s-40 17.909-40 40c0 22.091 17.909 40 40 40s40-17.909 40-40zM628 268c0-22.091-17.909-40-40-40s-40 17.909-40 40c0 22.091 17.909 40 40 40s40-17.909 40-40z" />
<glyph unicode="&#xe9e6;" glyph-name="pdf-1" d="M842.013 370.519c-13.647 13.446-43.914 20.567-89.971 21.172-31.177 0.344-68.701-2.402-108.171-7.928-17.674 10.197-35.887 21.295-50.187 34.658-38.463 35.917-70.57 85.772-90.576 140.594 1.304 5.121 2.413 9.621 3.446 14.214 0 0 21.665 123.059 15.93 164.665-0.789 5.706-1.275 7.361-2.809 11.796l-1.882 4.835c-5.892 13.592-17.447 27.994-35.562 27.208l-10.915 0.344c-20.2 0-36.664-10.332-40.986-25.774-13.137-48.434 0.419-120.891 24.983-214.737l-6.288-15.285c-17.589-42.877-39.631-86.060-59.078-124.157l-2.529-4.956c-20.46-40.040-39.024-74.029-55.853-102.824l-17.376-9.187c-1.265-0.668-31.044-16.418-38.029-20.644-59.255-35.38-98.521-75.544-105.036-107.416-2.074-10.17-0.53-23.184 10.013-29.211l16.806-8.458c7.29-3.652 14.978-5.503 22.854-5.503 42.204 0 91.2 52.573 158.696 170.366 77.929 25.371 166.654 46.458 244.414 58.090 59.259-33.368 132.142-56.542 178.143-56.542 8.168 0 15.208 0.78 20.93 2.292 8.822 2.337 16.259 7.369 20.792 14.196 8.924 13.43 10.735 31.932 8.312 50.874-0.722 5.62-5.213 12.57-10.070 17.316zM211.647 145.952c7.695 21.043 38.16 62.644 83.203 99.556 2.832 2.296 9.807 8.834 16.195 14.903-47.103-75.126-78.647-105.068-99.398-114.459zM478.435 760.314c13.567 0 21.283-34.195 21.924-66.253 0.639-32.060-6.858-54.561-16.159-71.209-7.703 24.649-11.426 63.5-11.426 88.904 0 0-0.566 48.559 5.66 48.559zM398.851 322.506c9.45 16.917 19.283 34.758 29.33 53.677 24.492 46.316 39.959 82.558 51.479 112.347 22.911-41.683 51.445-77.121 84.987-105.514 4.184-3.54 8.617-7.1 13.273-10.65-68.21-13.496-127.164-29.91-179.069-49.861zM828.907 326.348c-4.155-2.598-16.055-4.099-23.71-4.099-24.705 0-55.271 11.295-98.122 29.666 16.464 1.219 31.561 1.837 45.099 1.837 24.78 0 32.12 0.108 56.35-6.073s24.536-18.733 20.383-21.331zM903.434 760.569l-142.863 142.862c-31.114 31.114-92.569 56.569-136.57 56.569h-480c-44.001 0-80.001-36-80.001-80.001v-864.001c0-43.999 36-79.999 80.001-79.999h736c43.999 0 79.999 36 79.999 79.999v608.001c0.002 44.001-25.453 105.458-56.565 136.57zM858.179 715.315c3.132-3.132 6.25-6.975 9.279-11.315h-163.457v163.455c4.341-3.030 8.185-6.15 11.315-9.279l142.863-142.862zM896.001 15.999c0-8.673-7.327-15.999-15.999-15.999h-736.002c-8.673 0-15.999 7.327-15.999 15.999v864.001c0 8.673 7.329 15.999 15.999 15.999h480c4.833 0 10.255-0.611 16.001-1.703v-254.296h254.296c1.092-5.747 1.703-11.167 1.703-15.999v-608.001z" />
<glyph unicode="&#xe9e7;" glyph-name="pdf" d="M899.531 744.836l-205.453 205.453c-6.162 6.162-14.707 9.71-23.446 9.71h-512.388c-20.939 0-43.485-16.172-43.485-51.659v-937.031c0-14.777 14.866-29.184 32.45-33.721 0.883-0.23 1.73-0.565 2.648-0.742 2.754-0.547 5.561-0.847 8.386-0.847h707.513c2.825 0 5.632 0.3 8.386 0.847 0.918 0.177 1.766 0.512 2.648 0.742 17.585 4.537 32.45 18.944 32.45 33.721v741.906c0 13.542-1.624 23.534-9.71 31.62zM846.301 748.138h-148.921v148.921l148.921-148.921zM158.243-28.69c-1.254 0-2.383 0.459-3.496 0.865-2.754 1.306-4.679 4.061-4.679 7.309v256.653h723.862v-256.653c0-3.249-1.924-5.985-4.679-7.309-1.112-0.406-2.242-0.865-3.496-0.865h-707.513zM150.069 271.448v636.893c0 3.831 0.583 16.349 8.174 16.349h504.85c-0.583-2.225-1.024-4.52-1.024-6.903v-204.959h204.959c2.383 0 4.661 0.441 6.886 1.024 0-0.265 0.018-0.371 0.018-0.636v-441.768h-723.862zM389.155 170.037c-5.879 4.82-12.518 8.457-19.915 10.858-7.398 2.419-14.883 3.619-22.44 3.619h-51.165v-177.894h28.972v64.212h21.486c9.322 0 17.867 1.359 25.582 4.096s14.318 6.603 19.791 11.582c5.473 4.979 9.728 11.14 12.8 18.467 3.054 7.327 4.59 15.484 4.59 24.505 0 8.527-1.818 16.207-5.438 23.058s-8.386 12.659-14.265 17.496zM378.174 111.263c-1.783-4.908-4.096-8.722-6.991-11.458s-6.073-4.714-9.534-5.914c-3.46-1.201-6.974-1.818-10.505-1.818h-26.553v70.479h21.716c7.398 0 13.347-1.165 17.867-3.496 4.502-2.33 7.998-5.226 10.505-8.686 2.489-3.46 4.131-7.080 4.943-10.858 0.794-3.778 1.201-7.115 1.201-10.010 0-7.256-0.883-13.33-2.648-18.238zM564.153 158.455c-7.486 7.874-16.896 14.212-28.248 18.944s-24.505 7.115-39.459 7.115h-53.583v-177.894h67.337c2.242 0 5.703 0.282 10.381 0.847 4.661 0.565 9.816 1.836 15.448 3.866 5.632 2.013 11.458 5.032 17.496 9.057s11.458 9.534 16.296 16.543 8.81 15.695 11.953 26.077 4.714 22.899 4.714 37.535c0 10.628-1.854 20.974-5.544 31.020-3.725 10.028-9.304 18.997-16.79 26.889zM543.038 46.698c-8.686-12.553-22.846-18.82-42.478-18.82h-28.725v134.691h16.896c13.842 0 25.106-1.818 33.792-5.438s15.572-8.369 20.639-14.248 8.474-12.429 10.258-19.668c1.766-7.239 2.648-14.566 2.648-21.963 0-23.817-4.343-42.019-13.030-54.554zM628.489 6.621h29.449v80.137h74.346v19.791h-74.346v56.002h81.814v21.963h-111.263zM678.453 554.62c-16.225 0-36.14-2.119-59.286-6.321-32.309 34.286-66.030 84.356-89.83 133.508 23.605 99.381 11.794 113.452 6.585 120.090-5.544 7.062-13.365 18.52-22.263 18.52-3.725 0-13.895-1.695-17.938-3.037-10.169-3.39-15.642-11.229-20.021-21.451-12.482-29.184 4.643-78.936 22.263-117.283-15.060-59.904-40.324-131.602-66.878-189.793-66.913-30.649-102.453-60.751-105.666-89.476-1.165-10.452 1.306-25.794 19.686-39.583 5.032-3.761 10.929-5.756 17.073-5.756v0c15.448 0 31.055 11.829 49.117 37.199 13.171 18.503 27.313 43.732 42.072 75.052 47.281 20.674 105.772 39.353 155.86 49.823 27.895-26.783 52.877-40.342 74.346-40.342 15.819 0 29.378 7.274 39.194 21.027 10.222 14.318 12.553 27.136 6.886 38.135-6.797 13.224-23.552 19.686-51.2 19.686zM362.567 383.841c-8.263 6.338-7.786 10.611-7.609 12.217 1.095 9.816 16.472 27.242 54.201 48.446-28.601-52.824-43.961-59.833-46.592-60.663zM507.339 788.533c0.759 0.247 18.45-19.438 1.695-56.779-25.176 25.759-3.425 56.196-1.695 56.779zM470.846 505.591c17.92 42.708 34.586 89.865 47.21 133.544 19.827-35.628 43.644-70.197 67.478-97.88-37.676-8.845-77.789-21.327-114.688-35.663zM698.615 514.048c-5.438-7.609-17.231-7.786-21.363-7.786-9.41 0-12.924 5.597-27.313 16.666 11.864 1.518 23.058 1.907 31.974 1.907 15.695 0 18.573-2.313 20.745-3.478-0.388-1.254-1.412-3.619-4.043-7.309z" />
<glyph unicode="&#xe9ea;" glyph-name="person" d="M868.917 201.21c-12.122 20.225-30.244 34.373-50.646 42.366l-138.201 62.58-56.602 51.3-112.275-102.489-109.74 103.396-64.042-54.012-133.33-61.351c-19.683-8.092-37.207-22.096-49.008-41.79l-155.072-259.332h1024l-155.083 259.332zM510.528-45.203l-58.119 196.154 58.119 58.119 58.119-58.119-58.119-196.154zM254.107 687.328c0 0 0.055-0.443 0.155-1.107 0.487-4.605 1.173-8.823 1.982-12.808 5.956-36.078 24.653-131.172 58.34-147.921-10.074 30.488-14.513 67.108 1.085 104.359 89.846 17.989 243.767 191.593 233.24 179.781 0 0 83.182-118.485 147.312-160.021 27.244-43.916 23.181-88.252 11.314-124.12 32.060 15.93 50.514 102.765 57.377 142.242 2.812 11.17 4.351 25.473 4.328 43.573-0.288 155.427-100.762 246.38-267.878 242.705-160.962-3.731-249.79-92.747-248.151-248.826 0.066-6.432 0.421-12.343 0.963-17.878l-0.066 0.022z" />
<glyph unicode="&#xe9f3;" glyph-name="placeholder" d="M512 516.267c65.877 0 119.467 53.606 119.467 119.467s-53.589 119.467-119.467 119.467-119.467-53.606-119.467-119.467 53.589-119.467 119.467-119.467zM512 721.067c47.053 0 85.333-38.281 85.333-85.333s-38.281-85.333-85.333-85.333-85.333 38.281-85.333 85.333 38.281 85.333 85.333 85.333zM508.979 25.481l261.82 378.146c98.202 130.918 84.002 346.112-30.396 460.493-61.815 61.833-144.009 95.881-231.424 95.881s-169.609-34.048-231.424-95.863c-114.398-114.381-128.597-329.574-30.788-459.981l262.212-378.675zM301.687 840.004c55.381 55.364 128.99 85.862 207.292 85.862s151.91-30.498 207.292-85.862c103.253-103.236 115.968-297.591 26.846-416.41l-234.138-338.142-234.513 338.654c-88.747 118.306-76.015 312.661 27.221 415.898zM718.797 226.014c-9.387 1.143-17.852-5.581-18.944-14.95s5.598-17.852 14.95-18.944c179.473-21.129 275.063-78.063 275.063-111.053 0-46.319-181.794-110.933-477.867-110.933s-477.867 64.614-477.867 110.933c0 32.99 95.59 89.924 275.063 111.053 9.353 1.092 16.043 9.591 14.95 18.944-1.109 9.37-9.574 16.128-18.944 14.95-179.695-21.163-305.203-80.759-305.203-144.947 0-72.090 175.872-145.067 512-145.067s512 72.977 512 145.067c0 64.188-125.508 123.785-305.203 144.947z" />
<glyph unicode="&#xe9f5;" glyph-name="play-button-1" d="M955.212 703.89c-68.35 118.384-178.71 203.070-310.754 238.45-132.042 35.384-269.958 17.226-388.348-51.128-118.388-68.352-203.070-178.712-238.45-310.756-35.38-132.042-17.222-269.962 51.128-388.346 68.348-118.384 178.712-203.070 310.754-238.45 44.092-11.816 88.834-17.66 133.292-17.66 88.678 0 176.202 23.258 255.058 68.786 118.384 68.35 203.070 178.71 238.45 310.754 35.382 132.046 17.22 269.962-51.13 388.35zM954.858 329.334c-31.696-118.292-107.56-217.162-213.62-278.394-106.056-61.234-229.612-77.498-347.904-45.806-118.294 31.696-217.162 107.56-278.396 213.62-61.232 106.056-77.498 229.614-45.8 347.908 31.698 118.292 107.562 217.158 213.62 278.394 70.65 40.79 149.048 61.624 228.498 61.624 39.82 0 79.918-5.236 119.404-15.818 118.292-31.696 217.162-107.56 278.394-213.62 61.234-106.058 77.502-229.614 45.804-347.908zM757.556 496.296l-329.052 189.98c-17.462 10.082-38.31 10.078-55.772 0.002-17.462-10.080-27.888-28.138-27.888-48.3v-379.96c0-20.162 10.424-38.218 27.888-48.3 8.73-5.042 18.304-7.56 27.882-7.56 9.58 0 19.158 2.524 27.888 7.562l329.056 189.978c17.46 10.084 27.882 28.14 27.882 48.302 0 20.16-10.424 38.216-27.884 48.296zM730.904 445.852l-329.054-189.978c-0.402-0.234-1.24-0.716-2.472 0-1.236 0.714-1.236 1.678-1.236 2.142v379.96c0 0.464 0 1.428 1.236 2.142 0.484 0.28 0.906 0.376 1.266 0.376 0.56 0 0.964-0.234 1.21-0.376l329.052-189.98c0.402-0.232 1.236-0.714 1.236-2.142s-0.838-1.912-1.238-2.144zM826.606 691.12c-63.378 81.876-158.652 136.884-261.396 150.922-14.566 1.994-28.018-8.212-30.012-22.798-1.99-14.582 8.216-28.018 22.798-30.012 89.024-12.162 171.566-59.818 226.464-130.738 5.252-6.784 13.13-10.336 21.092-10.336 5.698 0 11.44 1.818 16.292 5.578 11.638 9.008 13.77 25.746 4.762 37.384z" />
<glyph unicode="&#xe9f6;" glyph-name="play-button" d="M512 908.8c254.089 0 460.8-206.711 460.8-460.8s-206.711-460.8-460.8-460.8-460.8 206.711-460.8 460.8 206.711 460.8 460.8 460.8zM512 960c-282.743 0-512-229.239-512-512s229.257-512 512-512 512 229.239 512 512-229.257 512-512 512v0zM716.578 503.552l-272.623 179.422c-47.053 30.959-85.555 10.189-85.555-46.131v-377.6c0-56.32 38.554-77.158 85.692-46.319l272.367 178.244c47.121 30.874 47.172 81.425 0.119 112.384zM680.243 428.817l-242.091-158.43c-15.701-10.291-28.553-3.345-28.553 15.428v324.471c0 18.773 12.834 25.685 28.518 15.36l242.176-159.369c15.684-10.308 15.667-27.17-0.051-37.461z" />
<glyph unicode="&#xe9f9;" glyph-name="plus-button" d="M511.984-64c-282.318 0-511.984 229.699-511.984 512.016s229.666 511.984 511.984 511.984c282.318 0 511.984-229.666 511.984-511.984 0.033-282.318-229.666-512.016-511.984-512.016zM511.984 901.512c-250.074 0-453.496-203.455-453.496-453.496s203.422-453.463 453.496-453.463c250.041 0 453.463 203.422 453.463 453.463s-203.422 453.496-453.463 453.496zM713.856 418.773h-403.745c-16.155 0-29.277 13.056-29.277 29.244 0 16.155 13.089 29.277 29.277 29.277h403.745c16.155 0 29.244-13.122 29.244-29.277 0-16.188-13.056-29.244-29.244-29.244zM511.984 216.9c-16.155 0-29.277 13.089-29.277 29.244v403.745c0 16.155 13.122 29.277 29.277 29.277s29.244-13.122 29.244-29.277v-403.745c0-16.188-13.056-29.244-29.244-29.244z" />
<glyph unicode="&#xe9fc;" glyph-name="plus-symbol" d="M36.441 411.559c-20.158 0-36.181 16.543-36.181 36.702s16.022 36.181 36.181 36.181h438.825v438.857c0.033 20.158 16.576 36.702 36.734 36.702s36.181-16.543 36.181-36.702v-438.857h438.825c20.158 0 36.702-16.022 36.702-36.181s-16.543-36.702-36.702-36.702h-438.825v-438.857c0-20.158-16.022-36.702-36.181-36.702s-36.702 16.543-36.702 36.702v438.857h-438.857z" />
<glyph unicode="&#xe9ff;" glyph-name="power-button" d="M512 960c-282.318 0-512-229.682-512-512s229.682-512 512-512 512 229.682 512 512-229.682 512-512 512zM512-10.69c-252.922 0-458.69 205.768-458.69 458.69s205.768 458.69 458.69 458.69 458.69-205.768 458.69-458.69-205.768-458.69-458.69-458.69zM677.444 729.828c-12.686 7.464-29.026 3.222-36.488-9.466s-3.226-29.026 9.466-36.488c83.292-48.984 135.034-139.366 135.034-235.874 0-150.788-122.67-273.458-273.458-273.458-150.786 0-273.458 122.674-273.458 273.458 0 96.508 51.74 186.89 135.034 235.874 12.69 7.46 16.928 23.798 9.466 36.488-7.46 12.69-23.796 16.924-36.488 9.466-99.506-58.522-161.32-166.512-161.32-281.828 0-180.182 146.586-326.768 326.768-326.768s326.768 146.586 326.764 326.768c0 115.314-61.814 223.306-161.32 281.828zM512 810.336c-14.722 0-26.656-11.936-26.656-26.656v-335.68c0-14.722 11.934-26.656 26.656-26.656s26.656 11.934 26.656 26.656v335.68c0 14.718-11.934 26.656-26.656 26.656z" />
<glyph unicode="&#xea00;" glyph-name="ppt-file-format" d="M506.96 188.549c-11.196 0-18.785-1.078-22.77-2.157v-71.922c4.712-1.078 10.49-1.449 18.433-1.449 29.277 0 47.339 14.825 47.339 39.754-0.002 22.413-15.531 35.774-43.002 35.774zM296.98 188.549c-11.196 0-18.785-1.078-22.768-2.157v-71.922c4.71-1.078 10.489-1.449 18.432-1.449 29.275 0 47.339 14.825 47.339 39.754-0.002 22.413-15.537 35.774-43.002 35.774zM883.252 714.613c-0.058 4.695-1.567 9.333-4.792 12.999l-197.421 225.521c-0.058 0.063-0.116 0.082-0.157 0.14-1.177 1.315-2.549 2.398-4 3.354-0.431 0.278-0.865 0.529-1.315 0.783-1.255 0.682-2.57 1.246-3.961 1.658-0.374 0.108-0.704 0.26-1.078 0.357-1.488 0.364-3.040 0.575-4.607 0.575h-485.216c-22.137 0-40.158-18.021-40.158-40.158v-943.687c0-22.146 18.021-40.156 40.158-40.156h662.585c22.137 0 40.159 18.009 40.159 40.156v736.207c0.002 0.755-0.12 1.494-0.198 2.25zM372.152 96.412c-18.803-17.707-46.633-25.667-79.155-25.667-7.222 0-13.727 0.374-18.785 1.087v-87.087h-54.574v240.314c16.973 2.882 40.837 5.059 74.449 5.059 33.963 0 58.176-6.512 74.432-19.511 15.55-12.295 26.020-32.519 26.020-56.372-0.002-23.863-7.934-44.096-22.387-57.823zM582.138 96.412c-18.803-17.707-46.64-25.667-79.163-25.667-7.22 0-13.725 0.374-18.785 1.087v-87.087h-54.572v240.314c16.975 2.882 40.837 5.059 74.451 5.059 33.963 0 58.178-6.512 74.432-19.511 15.55-12.295 26.022-32.519 26.022-56.372-0.004-23.863-7.934-44.096-22.385-57.823zM808.37 182.050h-66.489v-197.305h-55.295v197.305h-65.421v46.257h187.188v-46.257h0.017zM180.705 278.167v641.675h465.137v-205.459c0-11.084 9-20.079 20.079-20.079h177.372v-416.136h-662.587zM480.767 699.142c-90.793 0-164.371-73.597-164.371-164.382 0-90.778 73.577-164.366 164.371-164.366 90.779 0 164.371 73.588 164.371 164.366h-164.371v164.382zM503.062 560.701v-0.049h164.386c0 46.239-19.179 87.95-49.903 117.817l-114.483-117.768zM501.337 589.583l116.211 116.224c-32.685 32.696-73.47 48.648-116.332 48.035l0.082-164.22 0.039-0.039z" />
<glyph unicode="&#xea02;" glyph-name="printing-tool" d="M989.259 492.002c-23.19 23.188-50.985 34.776-83.394 34.776h-39.376v157.539c0 16.405-4.117 34.465-12.327 54.149-8.204 19.692-18.043 35.28-29.527 46.769l-93.553 93.542c-11.484 11.478-27.072 21.328-46.756 29.538-19.696 8.201-37.737 12.303-54.158 12.303h-413.547c-16.412 0-30.364-5.74-41.852-17.228-11.482-11.482-17.231-25.432-17.231-41.846v-334.766h-39.382c-32.411 0-60.206-11.594-83.39-34.776-23.18-23.175-34.767-50.972-34.767-83.385v-256.008c0-5.341 1.951-9.934 5.846-13.851 3.899-3.888 8.516-5.835 13.844-5.835h137.849v-98.461c0-16.418 5.742-30.368 17.231-41.852 11.488-11.478 25.441-17.231 41.852-17.231h590.769c16.405 0 30.377 5.753 41.854 17.231 11.484 11.493 17.231 25.434 17.231 41.852v98.461h137.847c5.326 0 9.943 1.946 13.838 5.835 3.895 3.914 5.841 8.51 5.841 13.851v256.008c0.009 32.414-11.575 60.21-34.744 83.385zM787.703 54.15h-551.39v157.535h551.39v-157.535zM787.703 448.003h-551.39v393.844h393.855v-98.458c0-16.412 5.753-30.355 17.224-41.846 11.484-11.488 25.432-17.228 41.852-17.228h98.458v-236.312zM933.556 380.928c-7.79-7.79-17.024-11.7-27.691-11.7s-19.901 3.908-27.693 11.7c-7.788 7.781-11.682 17.024-11.682 27.691s3.895 19.899 11.682 27.691c7.79 7.796 17.024 11.695 27.693 11.695 10.665 0 19.899-3.899 27.691-11.695 7.788-7.79 11.698-17.024 11.698-27.691s-3.901-19.91-11.698-27.691z" />
<glyph unicode="&#xea07;" glyph-name="reuse" d="M72.589 501.433c26.353 149.475 131.873 271.853 271.539 322.276l-6.557-11.363c-9.143-15.828-3.724-36.069 12.104-45.212 5.216-3.009 10.904-4.444 16.521-4.444 11.433 0 22.558 5.935 28.687 16.548l45.627 78.992c4.391 7.603 5.586 16.636 3.314 25.113-2.273 8.481-7.815 15.709-15.418 20.1l-79.014 45.632c-15.842 9.143-36.074 3.715-45.212-12.108-9.139-15.828-3.72-36.069 12.108-45.208l8.243-4.761c-163.071-57.736-286.445-200.049-317.122-374.068-14.844-84.106-7.285-170.784 21.856-250.672 4.898-13.428 17.58-21.759 31.096-21.759 3.764 0 7.599 0.649 11.336 2.012 17.174 6.266 26.017 25.263 19.751 42.432-25.161 68.966-31.683 143.823-18.86 216.491zM854.5 162.631c-13.997 11.764-34.869 9.955-46.629-4.038-96.276-114.531-247.481-169.575-394.658-143.598-71.437 12.598-138.095 43.58-193.567 89.101h10.648c18.282 0 33.095 14.818 33.095 33.095s-14.813 33.095-33.095 33.095h-88.108c-8.503 0.803-17.311-1.659-24.371-7.581-6.884-5.772-10.807-13.75-11.645-22.033-0.004-0.031-0.009-0.057-0.013-0.088 0-0.009 0-0.018 0-0.026-0.093-0.949-0.137-1.902-0.146-2.855-0.004-0.168-0.026-0.327-0.026-0.494l-0.035-91.21c-0.009-18.277 14.805-33.1 33.082-33.108h0.013c18.273 0 33.086 14.809 33.095 33.082l0.004 11.526c65.286-55.198 144.516-92.684 229.575-107.683 27.915-4.925 55.948-7.334 83.815-7.334 142.181 0 279.831 62.682 373.005 173.52 11.764 13.988 9.955 34.869-4.038 46.629zM1019.561 331.284c-9.134 15.828-29.384 21.252-45.208 12.113l-10.886-6.284c0.45 2.339 0.98 4.664 1.39 7.007 22.544 127.889-6.054 256.889-80.532 363.253s-185.915 177.35-313.782 199.877c-18.004 3.168-35.169-8.852-38.333-26.851-3.173-17.999 8.847-35.165 26.847-38.337 110.454-19.46 206.721-80.779 271.054-172.66 64.205-91.691 88.929-202.865 69.681-313.116l-4.85 8.397c-9.139 15.828-29.38 21.26-45.208 12.122-15.833-9.134-21.256-29.375-12.122-45.208l45.61-79.027c4.391-7.603 11.619-13.15 20.1-15.422 2.82-0.755 5.697-1.13 8.565-1.13 5.759 0 11.473 1.505 16.548 4.435l79.014 45.618c15.828 9.143 21.252 29.384 12.113 45.212z" />
<glyph unicode="&#xea09;" glyph-name="right-arrow" d="M1007.633 487.786l-369.803 369.811c-10.556 10.556-24.626 16.351-39.628 16.351-15.019 0-29.080-5.803-39.636-16.351l-33.575-33.584c-10.548-10.54-16.359-24.617-16.359-39.628 0-15.002 5.811-29.554 16.359-40.094l215.738-216.212h-685.408c-30.903 0-55.321-24.193-55.321-55.104v-47.478c0-30.911 24.418-57.543 55.321-57.543h687.856l-218.177-217.419c-10.548-10.556-16.359-24.251-16.359-39.261 0-14.994 5.811-28.888 16.359-39.436l33.575-33.475c10.556-10.556 24.617-16.309 39.636-16.309 15.002 0 29.071 5.828 39.628 16.384l369.803 369.803c10.581 10.59 16.401 24.726 16.359 39.753 0.033 15.077-5.778 29.221-16.367 39.794z" />
<glyph unicode="&#xea0d;" glyph-name="rupee" d="M512 960c-282.304 0-512-229.696-512-512s229.696-512 512-512 512 229.696 512 512-229.696 512-512 512zM512 0c-246.976 0-448 200.96-448 448s201.024 448 448 448 448-200.96 448-448-201.024-448-448-448zM672 576h-35.264c-4.8 23.808-15.424 45.312-29.568 64h64.832c17.664 0 32 14.336 32 32s-14.336 32-32 32h-320c-17.664 0-32-14.336-32-32s14.336-32 32-32h128c41.664 0 76.864-26.816 90.112-64h-218.112c-17.664 0-32-14.336-32-32s14.336-32 32-32h218.112c-13.248-37.184-48.448-64-90.112-64h-128c-4.16 0-8.32-0.832-12.224-2.432-7.808-3.264-14.080-9.472-17.344-17.344-3.264-7.808-3.264-16.64 0-24.448 1.6-3.968 3.968-7.488 6.976-10.432l255.936-255.936c6.272-6.272 14.464-9.408 22.656-9.408s16.384 3.136 22.656 9.344c12.48 12.48 12.48 32.768 0 45.248l-201.408 201.408h50.752c77.312 0 141.888 55.040 156.736 128h35.264c17.664 0 32 14.336 32 32s-14.336 32-32 32z" />
</font>
</defs>
</svg>
